Results 1 to 1 of 1
  1. #1
    Banned www.desirulez.net
    Join Date
    Jan 2010
    Posts
    2,522

    T

    Thumbs up Prem Aggan (1998) DvD - 2CD - XViD - 6Channel - AC3

    Follow us on Social Media







    Prem Aggan (1998) DvD - 2CD - XViD - 6Channel - AC3










    Ripper : Rahul
    Complete name : Prem Aggan (1998)
    Format : AVI
    Format/Info : Audio Video Interleave
    File size : 1.37 GiB
    Duration : 2h 48mn
    Overall bit rate : 1 161 Kbps
    Writing application : VirtualDubMod 1.5.10.3 |

    Video
    ID : 0
    Format : MPEG-4 Visual
    Format profile : Advanced [email protected]
    Format settings, BVOP : Yes
    Format settings, QPel : No
    Format settings, GMC : No warppoints
    Format settings, Matrix : Default (H.263)
    Codec ID : XVID
    Codec ID/Hint : XviD
    Duration : 2h 48mn
    Bit rate : 701 Kbps
    Width : 720 pixels
    Height : 320 pixels
    Display aspect ratio : 2.25:1
    Frame rate : 29.970 fps
    Color space : YUV
    Chroma subsampling : 4:2:0
    Bit depth : 8 bits
    Scan type : Progressive
    Compression mode : Lossy
    Bits/(Pixel*Frame) : 0.102
    Stream size : 847 MiB (60%)
    Writing library : XviD 1.2.1 (UTC 2008-12-04)

    Audio
    ID : 1
    Format : AC-3
    Format/Info : Audio Coding 3
    Mode extension : CM (complete main)
    Codec ID : 2000
    Duration : 2h 48mn
    Bit rate mode : Constant
    Bit rate : 448 Kbps
    Channel(s) : 6 channels
    Channel positions : Front: L C R, Side: L R, LFE
    Sampling rate : 48.0 KHz
    Bit depth : 16 bits
    Compression mode : Lossy
    Stream size : 541 MiB (39%)
    Alignment : Split accross interleaves
    Interleave, duration : 33 ms (1.00 video frame)
    Interleave, preload duration : 500 ms
























    400MB Links



    Code:
    http://www.fileserve.com/file/JHuE5fH/Prem.Aggan.1998.DvD.2CD.XViD.6Channel.AC3.By.Deejam.part1.rar
    http://www.fileserve.com/file/5TnUTvA/Prem.Aggan.1998.DvD.2CD.XViD.6Channel.AC3.By.Deejam.part2.rar
    http://www.fileserve.com/file/DtUR883/Prem.Aggan.1998.DvD.2CD.XViD.6Channel.AC3.By.Deejam.part3.rar
    http://www.fileserve.com/file/d94qz39/Prem.Aggan.1998.DvD.2CD.XViD.6Channel.AC3.By.Deejam.part4.rar
    OR


    Code:
    http://hotfile.com/dl/100404208/a884c32/Prem.Aggan.1998.DvD.2CD.XViD.6Channel.AC3.By.Deejam.part1.rar.html
    http://hotfile.com/dl/100404096/367a4cf/Prem.Aggan.1998.DvD.2CD.XViD.6Channel.AC3.By.Deejam.part2.rar.html
    http://hotfile.com/dl/100404157/1b9e468/Prem.Aggan.1998.DvD.2CD.XViD.6Channel.AC3.By.Deejam.part3.rar.html
    http://hotfile.com/dl/100403703/f919770/Prem.Aggan.1998.DvD.2CD.XViD.6Channel.AC3.By.Deejam.part4.rar.html

    OR

    Code:
    http://www.filesonic.com/file/68844741/Prem.Aggan.1998.DvD.2CD.XViD.6Channel.AC3.By.Deejam.part1.rar
    http://www.filesonic.com/file/68844371/Prem.Aggan.1998.DvD.2CD.XViD.6Channel.AC3.By.Deejam.part2.rar
    http://www.filesonic.com/file/68844191/Prem.Aggan.1998.DvD.2CD.XViD.6Channel.AC3.By.Deejam.part3.rar
    http://www.filesonic.com/file/68844203/Prem.Aggan.1998.DvD.2CD.XViD.6Channel.AC3.By.Deejam.part4.rar














 

 

Posting Permissions

  • You may not post new threads
  • You may not post replies
  • You may not post attachments
  • You may not edit your posts
  •