Results 1 to 1 of 1
  1. #1
    Tech Team www.desirulez.net
    Join Date
    Dec 2010
    Location
    India
    Posts
    434

    T

    Red face Band Baaja Baaraat (2010) 1CD - DVDRip - Xvid - ESubs

    Follow us on Social Media









    Band Baaja Baaraat (2010) 1CD DVDRip Xvid MP3 ESubs






    Format : AVI
    Format/Info : Audio Video Interleave
    File size : 695 MiB
    Duration : 2h 19mn
    Overall bit rate : 696 Kbps
    Writing library : VirtualDub build 32842/release

    Video
    ID : 0
    Format : MPEG-4 Visual
    Format profile : Advanced [email protected]
    Format settings, BVOP : 2
    Format settings, QPel : No
    Format settings, GMC : No warppoints
    Format settings, Matrix : Default (H.263)
    Codec ID : XVID
    Codec ID/Hint : XviD
    Duration : 2h 19mn
    Bit rate : 610 Kbps
    Width : 608 pixels
    Height : 256 pixels
    Display aspect ratio : 2.35:1
    Frame rate : 23.976 fps
    Color space : YUV
    Chroma subsampling : 4:2:0
    Bit depth : 8 bits
    Scan type : Progressive
    Compression mode : Lossy
    Bits/(Pixel*Frame) : 0.163
    Stream size : 609 MiB (88%)
    Writing library : XviD 1.2.1 (UTC 2008-12-04)

    Audio
    ID : 1
    Format : MPEG Audio
    Format version : Version 1
    Format profile : Layer 3
    Mode : Joint stereo
    Codec ID : 55
    Codec ID/Hint : MP3
    Duration : 2h 19mn
    Bit rate mode : Variable
    Bit rate : 80.0 Kbps
    Channel(s) : 2 channels
    Sampling rate : 32.0 KHz
    Compression mode : Lossy
    Stream size : 76.4 MiB (11%)
    Alignment : Aligned on interleaves
    Interleave, duration : 36 ms (0.86 video frame)
    Interleave, preload duration : 496 ms
    Writing library : LAME3.98r
    Encoding settings : -m j -V 4 -q 2 -lowpass 13.5 --abr 80









    SUBTITLE
    Code:
    http://www.duckload.com/dl/9coV2
    DOWNLOAD FROM DUCKLOAD::
    Code:
    http://www.duckload.com/dl/vooV2
    DOWNLOAD FROM Megaupload::99MB links
    Code:
    http://www.megaupload.com/?d=80T729VW
    http://www.megaupload.com/?d=GRLGG800
    http://www.megaupload.com/?d=OSG1ZN8G
    http://www.megaupload.com/?d=CFU06JTQ
    http://www.megaupload.com/?d=QP79ZN2T
    http://www.megaupload.com/?d=O4G47JX5
    http://www.megaupload.com/?d=BXB4TU3R
    http://www.megaupload.com/?d=SO4175TL
    USE HJSPLIT TO JOIN FILES

    DOWNLOAD HJSPLIT - 0.33MB


    Code:
    http://www.duckload.com/download/1526932/hjsplit_24.zip

    CREDITS TO Original releaser


 

 

Posting Permissions

  • You may not post new threads
  • You may not post replies
  • You may not post attachments
  • You may not edit your posts
  •