Results 1 to 1 of 1
  1. #1
    Banned www.desirulez.net
    Join Date
    Jan 2010
    Posts
    2,522

    T

    Thumbs up Suhaag (1994) 2CD XViD 6 Channels AC3 Sound English Subtitles

    Follow us on Social Media







    Suhaag (1994) 2CD XViD 6 Channels AC3 Sound English Subtitles










    Format : AVI
    Format/Info : Audio Video Interleave
    File size : 1.37 GiB
    Duration : 2h 41mn
    Overall bit rate : 1 209 Kbps
    Writing application : VirtualDubMod 1.5.10.2 (build 2542/release)
    Writing library : VirtualDubMod build 2542/release

    Video
    ID : 0
    Format : MPEG-4 Visual
    Format profile : [email protected]
    Format settings, BVOP : Yes
    Format settings, QPel : Yes
    Format settings, GMC : No warppoints
    Format settings, Matrix : Default (MPEG)
    Codec ID : XVID
    Codec ID/Hint : XviD
    Duration : 2h 41mn
    Bit rate : 976 Kbps
    Width : 640 pixels
    Height : 304 pixels
    Display aspect ratio : 2.2:1
    Frame rate : 23.976 fps
    Resolution : 24 bits
    Colorimetry : 4:2:0
    Scan type : Progressive
    Bits/(Pixel*Frame) : 0.209
    Stream size : 1.10 GiB (81%)
    Writing library : XviD 1.2.1 (UTC 2008-12-04)

    Audio
    ID : 1
    Format : AC-3
    Format/Info : Audio Coding 3
    Codec ID : 2000
    Duration : 2h 41mn
    Bit rate mode : Constant
    Bit rate : 224 Kbps
    Channel(s) : 6 channels
    Channel positions : Front: L C R, Surround: L R, LFE
    Sampling rate : 48.0 KHz
    Video delay : 550ms
    Stream size : 259 MiB (19%)
    Alignment : Split accross interleaves
    Interleave, duration : 42 ms (1.00 video frame)
    Interleave, preload duration : 500 ms




















    400Mb Links





    Code:
    http://hotfile.com/dl/99818360/ee09ae1/Suhaag.1994.DVDRIP.2CD.By.Deejam.part1.rar.html
    http://hotfile.com/dl/99818350/2d3d53c/Suhaag.1994.DVDRIP.2CD.By.Deejam.part2.rar.html
    http://hotfile.com/dl/99818528/5639ead/Suhaag.1994.DVDRIP.2CD.By.Deejam.part3.rar.html
    http://hotfile.com/dl/99818490/64977af/Suhaag.1994.DVDRIP.2CD.By.Deejam.part4.rar.html

    OR

    Code:
    http://www.fileserve.com/file/5Nkmg5W/Suhaag.1994.DVDRIP.2CD.By.Deejam.part1.rar
    http://www.fileserve.com/file/vc5AyFg/Suhaag.1994.DVDRIP.2CD.By.Deejam.part2.rar
    http://www.fileserve.com/file/T87zhpc/Suhaag.1994.DVDRIP.2CD.By.Deejam.part3.rar
    http://www.fileserve.com/file/gSMatgG/Suhaag.1994.DVDRIP.2CD.By.Deejam.part4.rar

    OR
    Code:
    http://www.duckload.com/download/2459439/Suhaag.1994.DVDRIP.2CD.By.Deejam.part2.rar
    http://www.duckload.com/download/2459426/Suhaag.1994.DVDRIP.2CD.By.Deejam.part3.rar
    http://www.duckload.com/download/2459422/Suhaag.1994.DVDRIP.2CD.By.Deejam.part1.rar
    http://www.duckload.com/download/2459393/Suhaag.1994.DVDRIP.2CD.By.Deejam.part4.rar



 

 

Posting Permissions

  • You may not post new threads
  • You may not post replies
  • You may not post attachments
  • You may not edit your posts
  •