Results 1 to 2 of 2
  1. #1
    Banned www.desirulez.net
    Join Date
    Jan 2010
    Posts
    2,522

    T

    Thumbs up Qayamat Se Qayamat Tak (1988) 1CD Dvdrip x264 + Single Links

    Follow us on Social Media







    Qayamat Se Qayamat Tak (1988) 1CD Dvdrip x264 + Single Links







    Code:
    Ripper : snaink
    Source : DVD 9 @ DUS Warehouse
    
    General
    Format : Matroska
    File size : 698 MiB
    Duration : 2h 38mn
    Overall bit rate : 616 Kbps
    
    Video
    Format : AVC
    Format/Info : Advanced Video Codec
    Format profile : [email protected]
    Format settings, CABAC : Yes
    Format settings, ReFrames : 4 frames
    Muxing mode : Container [email protected]
    Codec ID : V_MPEG4/ISO/AVC
    Duration : 2h 38mn
    Bit rate : 518 Kbps
    Width : 688 pixels
    Height : 272 pixels
    Display aspect ratio : 2.529
    Frame rate : 23.976 fps
    Color space : YUV
    Chroma subsampling : 4:2:0
    Bit depth : 8 bits
    Scan type : Progressive
    Bits/(Pixel*Frame) : 0.115
    Stream size : 576 MiB (82%)
    Writing library : x264 core 98 r1649 c54c47d
    
    Audio
    Format : AC-3
    Format/Info : Audio Coding 3
    Mode extension : CM (complete main)
    Codec ID : A_AC3
    Duration : 2h 38mn
    Bit rate mode : Constant
    Bit rate : 96.0 Kbps
    Channel(s) : 2 channels
    Channel positions : Front: L R
    Sampling rate : 48.0 KHz
    Video delay : 10s 443ms
    Stream size : 109 MiB (16%)
    Language : Hindi
















    400Mb Links



    Code:
    http://www.fileserve.com/file/V6pQahr/Qayamat.Se.Qayamat.Tak.1988.DVDRIP.1CD.Xvid.By.Deejam.part1.rar
    http://www.fileserve.com/file/s4ZHJyf/Qayamat.Se.Qayamat.Tak.1988.DVDRIP.1CD.Xvid.By.Deejam.part2.rar
    OR

    Code:
    http://www.filesonic.com/file/64933983/Qayamat.Se.Qayamat.Tak.1988.DVDRIP.1CD.Xvid.By.Deejam.part1.rar
    http://www.filesonic.com/file/64934257/Qayamat.Se.Qayamat.Tak.1988.DVDRIP.1CD.Xvid.By.Deejam.part2.rar
    OR

    Code:
    http://hotfile.com/dl/99668017/ca59fa7/Qayamat.Se.Qayamat.Tak.1988.DVDRIP.1CD.Xvid.By.Deejam.part1.rar.html
    http://hotfile.com/dl/99667256/89d827f/Qayamat.Se.Qayamat.Tak.1988.DVDRIP.1CD.Xvid.By.Deejam.part2.rar.html
    OR

    Code:
    http://www.duckload.com/download/2445369/Qayamat.Se.Qayamat.Tak.1988.DVDRIP.1CD.Xvid.By.Deejam.part1.rar
    http://www.duckload.com/download/2445366/Qayamat.Se.Qayamat.Tak.1988.DVDRIP.1CD.Xvid.By.Deejam.part2.rar


    Single Link 700MB



    Code:
    http://www.fileserve.com/file/KpYmWYY/Qayamat.Se.Qayamat.Tak.1988.DVDRIP.1CD.Xvid.By.Deejam.avi

    OR


    Code:
    http://www.filesonic.com/file/64934793/Qayamat.Se.Qayamat.Tak.1988.DVDRIP.1CD.Xvid.By.Deejam.avi
    OR

    Code:
    http://www.duckload.com/download/2445382/Qayamat.Se.Qayamat.Tak.1988.DVDRIP.1CD.Xvid.By.Deejam.avi


  2. #2
    New Arrivals
    Join Date
    Aug 2009
    Posts
    2

    T

    Default

    hi

 

 

Posting Permissions

  • You may not post new threads
  • You may not post replies
  • You may not post attachments
  • You may not edit your posts
  •