Results 1 to 1 of 1
  1. #1
    Banned www.desirulez.net
    Join Date
    Jan 2010
    Posts
    2,522

    T

    Thumbs up Chori Mera Kaam ( 1975 ) DvD - 2CD - Rip - Xvid

    Follow us on Social Media







    Chori Mera Kaam ( 1975 ) DvD - 2CD - Rip - Xvid










    Code:
    Ripper : Rahul
    Complete name : Chori Mera Kaam ( 1975 )
    Format : AVI
    Format/Info : Audio Video Interleave
    File size : 1.37 GiB
    Duration : 2h 38mn
    Overall bit rate : 1 233 Kbps
    
    
    Video
    ID : 0
    Format : MPEG-4 Visual
    Format profile : Advanced [email protected]
    Format settings, BVOP : Yes
    Format settings, QPel : No
    Format settings, GMC : No warppoints
    Format settings, Matrix : Default (H.263)
    Muxing mode : Packed bitstream
    Codec ID : XVID
    Codec ID/Hint : XviD
    Duration : 2h 38mn
    Bit rate : 1 090 Kbps
    Width : 608 pixels
    Height : 448 pixels
    Display aspect ratio : 4:3
    Frame rate : 23.976 fps
    Color space : YUV
    Chroma subsampling : 4:2:0
    Bit depth : 8 bits
    Scan type : Progressive
    Compression mode : Lossy
    Bits/(Pixel*Frame) : 0.167
    Stream size : 1.21 GiB (88%)
    Writing library : XviD 1.1.2 (UTC 2006-11-01)
    
    Audio
    ID : 1
    Format : MPEG Audio
    Format version : Version 1
    Format profile : Layer 3
    Mode : Joint stereo
    Mode extension : MS Stereo
    Codec ID : 55
    Codec ID/Hint : MP3
    Duration : 2h 38mn
    Bit rate mode : Variable
    Bit rate : 128 Kbps
    Channel(s) : 2 channels
    Sampling rate : 48.0 KHz
    Compression mode : Lossy
    Stream size : 148 MiB (11%)
    Alignment : Aligned on interleaves
    Interleave, duration : 24 ms (0.58 video frame)
    Interleave, preload duration : 141 ms
    Writing library : LAME3.90.























    400Mb Links




    Code:
    http://www.fileserve.com/file/EM63H6s/Chori.Mera.Kaam.1975.DVDRIP.2CD.Xvid.By.Deejam.part1.rar
    http://www.fileserve.com/file/cESfTBF/Chori.Mera.Kaam.1975.DVDRIP.2CD.Xvid.By.Deejam.part2.rar
    http://www.fileserve.com/file/RhHvnSf/Chori.Mera.Kaam.1975.DVDRIP.2CD.Xvid.By.Deejam.part3.rar
    http://www.fileserve.com/file/DPX299M/Chori.Mera.Kaam.1975.DVDRIP.2CD.Xvid.By.Deejam.part4.rar
    OR
    Code:
    http://www.filesonic.com/file/64904997/Chori.Mera.Kaam.1975.DVDRIP.2CD.Xvid.By.Deejam.part1.rar
    http://www.filesonic.com/file/64905005/Chori.Mera.Kaam.1975.DVDRIP.2CD.Xvid.By.Deejam.part2.rar
    http://www.filesonic.com/file/64904945/Chori.Mera.Kaam.1975.DVDRIP.2CD.Xvid.By.Deejam.part3.rar
    http://www.filesonic.com/file/64904289/Chori.Mera.Kaam.1975.DVDRIP.2CD.Xvid.By.Deejam.part4.rar

    OR


    Code:
    http://hotfile.com/dl/99660007/5a40e05/Chori.Mera.Kaam.1975.DVDRIP.2CD.Xvid.By.Deejam.part1.rar.html
    http://hotfile.com/dl/99660687/9420538/Chori.Mera.Kaam.1975.DVDRIP.2CD.Xvid.By.Deejam.part2.rar.html
    http://hotfile.com/dl/99659992/ebd8860/Chori.Mera.Kaam.1975.DVDRIP.2CD.Xvid.By.Deejam.part3.rar.html
    http://hotfile.com/dl/99659667/5cdf468/Chori.Mera.Kaam.1975.DVDRIP.2CD.Xvid.By.Deejam.part4.rar.html
    OR


    Code:
    http://www.duckload.com/download/2444674/Chori.Mera.Kaam.1975.DVDRIP.2CD.Xvid.By.Deejam.part1.rar
    http://www.duckload.com/download/2444675/Chori.Mera.Kaam.1975.DVDRIP.2CD.Xvid.By.Deejam.part2.rar
    http://www.duckload.com/download/2444676/Chori.Mera.Kaam.1975.DVDRIP.2CD.Xvid.By.Deejam.part3.rar
    http://www.duckload.com/download/2444650/Chori.Mera.Kaam.1975.DVDRIP.2CD.Xvid.By.Deejam.part4.rar









 

 

Posting Permissions

  • You may not post new threads
  • You may not post replies
  • You may not post attachments
  • You may not edit your posts
  •