Results 1 to 1 of 1
  1. #1
    Banned www.desirulez.net
    Join Date
    Jan 2010
    Posts
    2,522

    T

    Thumbs up Season Of The Witch 2011 Hindi Dubbed

    Follow us on Social Media







    Season Of The Witch 2011 Hindi Dubed




    14th-century knights transport a suspected witch to a monastery, where monks
    deduce her powers could be the source of the Black Plague.



    General
    Complete name : Season Of The Witch 2011 Hindi Dubed
    Format : MPEG-PS
    File size : 547 MiB
    Duration : 1h 24mn
    Overall bit rate : 905 Kbps

    Video
    ID : 224 (0xE0)
    Format : MPEG Video
    Format version : Version 2
    Format profile : [email protected]
    Format settings, BVOP : Yes
    Format settings, Matrix : Default
    Duration : 1h 24mn
    Bit rate mode : Variable
    Bit rate : 695 Kbps
    Nominal bit rate : 9 608 Kbps
    Width : 352 pixels
    Height : 288 pixels
    Display aspect ratio : 4:3
    Frame rate : 25.000 fps
    Standard : PAL
    Color space : YUV
    Chroma subsampling : 4:2:0
    Bit depth : 8 bits
    Scan type : Progressive
    Bits/(Pixel*Frame) : 0.274
    Stream size : 420 MiB (77%)

    Audio
    ID : 128 (0x80)
    Format : AC-3
    Format/Info : Audio Coding 3
    Mode extension : CM (complete main)
    Duration : 1h 24mn
    Bit rate mode : Constant
    Bit rate : 192 Kbps
    Channel(s) : 2 channels
    Channel positions : Front: L R
    Sampling rate : 48.0 KHz
    Bit depth : 16 bits
    Stream size : 116 MiB (21%)
    Language : Hindi
    ==================================











    200MB Links


    Code:
    
    http://www.fileserve.com/file/TyXmntX/SOW.2011.Hindi.Dubed.By.Deejam.part1.rar
    http://www.fileserve.com/file/qYXfmvP/SOW.2011.Hindi.Dubed.By.Deejam.part2.rar
    http://www.fileserve.com/file/J7u7uU8/SOW.2011.Hindi.Dubed.By.Deejam.part3.rar

    OR
    Code:
    http://hotfile.com/dl/99463512/4a77341/SOW.2011.Hindi.Dubed.By.Deejam.part1.rar.html
    http://hotfile.com/dl/99463513/c8e1f72/SOW.2011.Hindi.Dubed.By.Deejam.part2.rar.html
    http://hotfile.com/dl/99463514/2db667c/SOW.2011.Hindi.Dubed.By.Deejam.part3.rar.html




    Single Link 547MB


    Code:
    http://www.fileserve.com/file/PSQvzXY/SOW.2011.Hindi.Dubed.By.Deejam.rar

    OR
    Code:
    http://www.duckload.com/download/2423802/SOW.2011.Hindi.Dubed.By.Deejam.rar

    OR
    Code:
    http://www.filesonic.com/file/64406083/SOW.2011.Hindi.Dubed.By.Deejam.rar
    OR

    Code:
    http://bitshare.com/files/cihj6dad/SOW.2011.Hindi.Dubed.By.Deejam.rar.html


 

 

Posting Permissions

  • You may not post new threads
  • You may not post replies
  • You may not post attachments
  • You may not edit your posts
  •