Results 1 to 1 of 1
  1. #1
    Hot Member www.desirulez.net
    Join Date
    Sep 2010
    Posts
    1,427

    T

    Arrow Endhiran (2010) - 1/3 Ayn DVD Rip - X264 - AC3 - Team SD

    Follow us on Social Media









    Rip Info ::--
    Code:
    Video
    ID                               : 1
    Format                           : AVC
    Format/Info                      : Advanced Video Codec
    Format profile                   : [email protected]
    Format settings, CABAC           : Yes
    Format settings, ReFrames        : 4 frames
    Format settings, GOP             : M=1, N=16
    Codec ID                         : V_MPEG4/ISO/AVC
    Duration                         : 2h 56mn
    Bit rate                         : 908 Kbps
    Width                            : 688 pixels
    Height                           : 288 pixels
    Display aspect ratio             : 2.35:1
    Frame rate                       : 23.976 fps
    Color space                      : YUV
    Chroma subsampling               : 4:2:0
    Bit depth                        : 8 bits
    Scan type                        : Progressive
    Bits/(Pixel*Frame)               : 0.191
    Stream size                      : 1.10 GiB (78%)
    Writing library                  : x264 core 112 r1867 22bfd31
    
    
    Audio
    ID                               : 2
    Format                           : AC-3
    Format/Info                      : Audio Coding 3
    
    Codec ID                         : A_AC3
    Duration                         : 2h 56mn
    Bit rate mode                    : Constant
    Bit rate                         : 224 Kbps
    Channel(s)                       : 6 channels
    Channel positions                : Front: L C R, Side: L R, LFE
    Sampling rate                    : 48.0 KHz
    Bit depth                        : 16 bits
    Compression mode                 : Lossy
    Delay relative to video          : 2s 402ms
    Stream size                      : 284 MiB (20%)
    
    Credits ::-- thambi @ TTT
    Uploader ::-- -=[DON]=- @ Team SD






    Download Links ::--
    Code:
    http://www.fileserve.com/file/qpmUQ4P
    http://www.fileserve.com/file/s9ZHByQ
    http://www.fileserve.com/file/VkmP8qA
    http://www.fileserve.com/file/adQHTjT
    
    http://www.filefactory.com/file/b5214c0/n/Endhiran_(2010)_-_1.3_DVD_Rip_-_X264_-_AC3_-_Team_SD.mkv.001
    http://www.filefactory.com/file/b5214a6/n/Endhiran_(2010)_-_1.3_DVD_Rip_-_X264_-_AC3_-_Team_SD.mkv.002
    http://www.filefactory.com/file/b5214a9/n/Endhiran_(2010)_-_1.3_DVD_Rip_-_X264_-_AC3_-_Team_SD.mkv.003
    http://www.filefactory.com/file/b5214ca/n/Endhiran_(2010)_-_1.3_DVD_Rip_-_X264_-_AC3_-_Team_SD.mkv.004
    All Links Are Interchangeable Join Them Using HJSplit
    Single Links ::--
    Code:
    http://cramit.in/iaixudp83pbs
    
    http://www.filefactory.com/file/b521508/n/Endhiran_(2010)_-_1.3_DVD_Rip_-_X264_-_AC3_-_Team_SD.mkv

 

 

Posting Permissions

  • You may not post new threads
  • You may not post replies
  • You may not post attachments
  • You may not edit your posts
  •