Results 1 to 1 of 1
  1. #1
    Join Date
    Jan 2010

    Thumbs up Khelein Hum Jee Jaan Sey [2010] ~ Xvid ~ 1 CD Pre-DVD Rip 1Link

    Follow us on Social Media

    Khelein Hum Jee Jaan Sey [2010] ~ Xvid ~ 1 CD Pre-DVD Rip 1Link

    Cast :

    Abhishek Bachchan, Deepika Padukone, Sikander Kher, Vishakha Singh, Samrat Mukherji, Maninder Singh, Feroz Wahid Khan, Shreyas Pandit, Amin Gazi, Rohan Painter, Smit Sheth, Palash Muchhal, Nitin Prabhat, Narendra Bindra, Paarth Mandal, Mohsin Khan, Abbas Khandwawala, Shubham Patekar, Gaurav Sethi, Aakash Joshi, Vikramjeet Virk, Jan Bostock, Monty Munford, Paul Gatward, John Tassi, John Pollard, Robert Drury

    Synopsis :

    1930, British India: In the province of undivided Bengal lies the sleepy, peaceful port of Chittagong. In this unassuming little town a revolution is about to begin; a revolution which will forever wake all of Chittagong and inspire the entire nation. April 18. 1 night. 5 simultaneous attacks. A band of 64 ? 56 innocent yet fearless young boys, 5 defiant revolutionaries, 2 determined young women, and an idealistic leader Surjya Sen, a school teacher by profession. This group of 64 represents a little known chapter in history; a forgotten night that reigned terror on the British through a series of calculated attacks. Khelein Hum Jee Jaan Sey is a true story of these forgotten heroes and the narrative takes us through every step of the action from the initial trepidation, to the thrill of the attack, to the underground movement, daring escapes and tragic captures, and most importantly, their undying legacy. A period thriller, the film is based on the book 'DO and DIE: The Chittagong Uprising 1930 34' by Manini Chatterjee. A PVR Pictures Presentation of an Ashutosh Gowariker Productions' film, directed by Ashutosh Gowariker and produced jointly by Ajay Bijli, Sanjeev K. Bijli and Sunita A. Gowariker, the film will hit theatres on December 3, 2010.

    Name : Khelein Hum Jee Jaan Sey
    Format : AVI
    Format/Info : Audio Video Interleave
    Format profile : OpenDML
    File size : 697 MiB
    Duration : 2h 26mn
    Overall bit rate : 667 Kbps
    Writing application : AVI-Mux GUI

    ID : 0
    Format : MPEG-4 Visual
    Format profile : Advanced [email protected]
    Format settings, BVOP : Yes
    Format settings, QPel : No
    Format settings, GMC : No warppoints
    Format settings, Matrix : Default (H.263)
    Codec ID : XVID
    Codec ID/Hint : XviD
    Duration : 2h 26mn
    Bit rate : 600 Kbps
    Width : 544 pixels
    Height : 240 pixels
    Display aspect ratio : 2.25:1
    Frame rate : 25.000 fps
    Color space : YUV
    Chroma subsampling : 4:2:0
    Bit depth : 8 bits
    Scan type : Progressive
    Bits/(Pixel*Frame) : 0.184
    Stream size : 627 MiB (90%)
    Writing library : XviD 1.2.1

    ID : 1
    Format : MPEG Audio
    Format version : Version 2
    Format profile : Layer 3
    Mode : Joint stereo
    Mode extension : MS Stereo
    Codec ID : 55
    Codec ID/Hint : MP3
    Duration : 2h 26mn
    Bit rate mode : Constant
    Bit rate : 64.0 Kbps
    Channel(s) : 2 channels
    Sampling rate : 24.0 KHz
    Stream size : 66.9 MiB (10%)

    Source : SCAM DVD - DUS - Thanx
    Ripper : Nordmariner

    400MB Links




    Single Link 700MB






Posting Permissions

  • You may not post new threads
  • You may not post replies
  • You may not post attachments
  • You may not edit your posts