Results 1 to 1 of 1
  1. #1
    Banned www.desirulez.net
    Join Date
    Oct 2010
    Posts
    43

    T

    Thumbs up Changing Seasons (Ja Re Udd Ja Re) Music Video FT AR Rahman & Aishwarya 720p Team AF

    Follow us on Social Media










    General
    Complete name : C:\Documents and Settings\Qaisar Imtiaz\My Documents\Downloads\Video\Changing Seasons (Music Video) FT AR Rahman & Aishawarya Rai Bachchan Upscaled - DUS.mkv
    Format : Matroska
    File size : 101 MiB
    Duration : 4mn 41s
    Overall bit rate : 3 002 Kbps
    Encoded date : UTC 2011-01-19 16:14:56
    Writing application : mkvmerge v4.4.0 ('Die Wiederkehr') built on Oct 31 2010 21:52:48
    Writing library : libebml v1.0.0 + libmatroska v1.0.0

    Video
    ID : 1
    Format : AVC
    Format/Info : Advanced Video Codec
    Format profile : [email protected]L3.1
    Format settings, CABAC : Yes
    Format settings, ReFrames : 4 frames
    Muxing mode : Container [email protected]
    Codec ID : V_MPEG4/ISO/AVC
    Duration : 4mn 41s
    Bit rate : 2 495 Kbps
    Nominal bit rate : 2 551 Kbps
    Width : 1 280 pixels
    Height : 686 pixels
    Display aspect ratio : 1.866
    Frame rate : 20.000 fps
    Resolution : 24 bits
    Colorimetry : 4:2:0
    Scan type : Progressive
    Bits/(Pixel*Frame) : 0.142
    Stream size : 83.7 MiB (83%)
    Writing library : x264 core 112 r1867 22bfd31
    Encoding settings : cabac=1 / ref=3 / deblock=1:0:0 / analyse=0x3:0x113 / me=hex / subme=7 / psy=1 / psy_rd=1.00:0.00 / mixed_ref=1 / me_range=16 / chroma_me=1 / trellis=1 / 8x8dct=1 / cqm=0 / deadzone=21,11 / fast_pskip=1 / chroma_qp_offset=-2 / threads=1 / sliced_threads=0 / nr=0 / decimate=1 / interlaced=0 / constrained_intra=0 / bframes=3 / b_pyramid=2 / b_adapt=1 / b_bias=0 / direct=1 / weightb=1 / open_gop=0 / weightp=2 / keyint=250 / keyint_min=20 / scenecut=40 / intra_refresh=0 / rc_lookahead=40 / rc=2pass / mbtree=1 / bitrate=2551 / ratetol=1.0 / qcomp=0.60 / qpmin=0 / qpmax=51 / qpstep=4 / cplxblur=20.0 / qblur=0.5 / ip_ratio=1.40 / aq=1:1.00

    Audio
    ID : 2
    Format : AC-3
    Format/Info : Audio Coding 3
    Codec ID : A_AC3
    Duration : 4mn 41s
    Bit rate mode : Constant
    Bit rate : 448 Kbps
    Channel(s) : 2 channels
    Channel positions : L R
    Sampling rate : 44.1 KHz
    Stream size : 15.0 MiB (15%)






    Code:
    http://www.fileserve.com/file/zDbSPYS

 

 

Posting Permissions

  • You may not post new threads
  • You may not post replies
  • You may not post attachments
  • You may not edit your posts
  •