Results 1 to 1 of 1
  1. #1
    dR Contributor www.desirulez.net
    Join Date
    Jan 2011
    Posts
    2,299

    T

    Smile The Green Hornet (2011) - TSRip - x264 - MP4 - [FeelFree]

    Follow us on Social Media









    Genre:Action | Crime | Thriller
    Language:English

    IMDb:

    Code:
    http://www.imdb.com/title/tt0990407/
    Sourceerenity/Audiown,T0XiC-iNK Thx.
    Sample:Yes


    Format : MPEG-4
    Format profile : Base Media
    Codec ID : isom
    File size : 881 MiB
    Duration : 1h 51mn
    Overall bit rate : 1 109 Kbps

    Video
    Codec ID : avc1
    Codec ID/Info : Advanced Video Coding
    Duration : 1h 51mn
    Bit rate mode : Variable
    Bit rate : 943 Kbps
    Width : 720 pixels
    Height : 304 pixels
    Display aspect ratio : 2.35:1
    Frame rate mode : Constant
    Frame rate : 23.976 fps
    Original frame rate : 23.000 fps
    Color space : YUV
    Chroma subsampling : 4:2:0
    Bit depth : 8 bits
    Scan type : Progressive
    Bits/(Pixel*Frame) : 0.180
    Stream size : 749 MiB (85%)


    Audio
    ID : 1
    Format : AAC
    Format/Info : Advanced Audio Codec
    Format version : Version 4
    Format profile : LC
    Codec ID : 40
    Duration : 1h 51mn
    Bit rate mode : Constant
    Bit rate : 160 Kbps
    Channel(s) : 2 channels
    Channel positions : Front: L R
    Sampling rate : 48.0 KHz
    Stream size : 127 MiB (14%)
    Language : English


    Screenshots:








    Download Link:

    Code:
    http://cramit.in/ouwrqq115lt3

 

 

Posting Permissions

  • You may not post new threads
  • You may not post replies
  • You may not post attachments
  • You may not edit your posts
  •