Results 1 to 1 of 1
  1. #1
    Tech Team www.desirulez.net
    Join Date
    Dec 2010
    Location
    India
    Posts
    434

    T

    Default Siruthai (2011)1Cd - TCRip - Excellent Quality (Single & Split Links)

    Follow us on Social Media









    Siruthai (2011)1Cd - TCRip - Excellent Quality (Single & Split Links)





    General
    Complete name :siruthai
    Format : AVI
    Format/Info : Audio Video Interleave
    Format profile : OpenDML
    File size : 713 MiB
    Duration : 2h 39mn
    Overall bit rate : 623 Kbps
    Writing application : AVI-Mux GUI 1.17.8.3, Feb 16 201019:42:50

    Video
    ID : 0
    Format : MPEG-4 Visual
    Format profile : Advanced [email protected]
    Format settings, BVOP : Yes
    Format settings, QPel : No
    Format settings, GMC : No warppoints
    Format settings, Matrix : Default (H.263)
    Codec ID : XVID
    Codec ID/Hint : XviD
    Duration : 2h 39mn
    Bit rate : 535 Kbps
    Width : 608 pixels
    Height : 256 pixels
    Display aspect ratio : 2.35:1
    Frame rate : 23.976 fps
    Color space : YUV
    Chroma subsampling : 4:2:0
    Bit depth : 8 bits
    Scan type : Progressive
    Bits/(Pixel*Frame) : 0.143
    Stream size : 612 MiB (86%)
    Writing library : XviD 1.2.1 (UTC 2008-12-04)

    Audio
    ID : 1
    Format : MPEG Audio
    Format version : Version 1
    Format profile : Layer 3
    Mode : Joint stereo
    Codec ID : 55
    Codec ID/Hint : MP3
    Duration : 2h 39mn
    Bit rate mode : Variable
    Bit rate : 81.7 Kbps
    Nominal bit rate : 96.0 Kbps
    Channel(s) : 2 channels
    Sampling rate : 32.0 KHz
    Stream size : 93.5 MiB (13%)
    Alignment : Aligned on interleaves
    Interleave, duration : 36 ms (0.86 video frame)
    Interleave, preload duration : 267 ms
    Title : VTS_02_1 T80 2_0ch 160Kbps DELAY 0ms
    Writing library : LAME3.98r
    Encoding settings : -m j -V 4 -q 2 -lowpass 15.1 --abr 96









    DOWNLOAD FROM DUCKLOAD::

    SINGLE LINK::
    Code:
    http://www.duckload.com/download/2221832/siruthaii.avi
    (OR)
    SPLIT LINKS - 100MB
    Code:
    http://www.duckload.com/download/2228598/siru.avi.001
    http://www.duckload.com/download/2228597/siru.avi.002
    http://www.duckload.com/download/2228614/siru.avi.003
    http://www.duckload.com/download/2228635/siru.avi.004
    http://www.duckload.com/download/2228659/siru.avi.005
    http://www.duckload.com/download/2228688/siru.avi.006
    http://www.duckload.com/download/2228703/siru.avi.007
    http://www.duckload.com/download/2228708/siru.avi.008
    DOWNLOAD FROM FREAKSHARE::
    SINGLE LINK::
    Code:
    http://freakshare.com/files/4kt4bpfq/siru.avi.html
    (OR)
    SPLIT LINKS - 100MB
    Code:
    http://freakshare.com/files/tlroiwey/siru.avi.008.html
    http://freakshare.com/files/rtedp228/siru.avi.007.html
    http://freakshare.com/files/hoqbglrn/siru.avi.006.html
    http://freakshare.com/files/5w6cpxar/siru.avi.005.html
    http://freakshare.com/files/k7tbw098/siru.avi.004.html
    http://freakshare.com/files/xobygepy/siru.avi.003.html
    http://freakshare.com/files/oya9um9s/siru.avi.002.html
    http://freakshare.com/files/x22slky9/siru.avi.001.html
    DOWNLOAD FROM MEGAUPLOAD (SPLIT LINKS - 100Mb)::
    Code:
    http://www.megaupload.com/?d=ZU5C5AXG
    http://www.megaupload.com/?d=ANRREGPB
    http://www.megaupload.com/?d=F9WXYO4V
    http://www.megaupload.com/?d=P3DD67AW
    http://www.megaupload.com/?d=XSJNPMTB
    http://www.megaupload.com/?d=I7T7NN1L
    http://www.megaupload.com/?d=U4UYT3CV
    http://www.megaupload.com/?d=KOVYWKHT
    USE HJSPLIT TO JOIN FILES

    DOWNLOAD HJSPLIT - 0.33MB


    Code:
    http://www.duckload.com/download/1526932/hjsplit_24.zip

    CREDITS TO ORIGINAL RELEASER


 

 

Posting Permissions

  • You may not post new threads
  • You may not post replies
  • You may not post attachments
  • You may not edit your posts
  •