Results 1 to 1 of 1
  1. #1
    Join Date
    Jan 2010

    Thumbs up Yamla Pagla Deewana - 2011 - 1CD X264 ScrRip - Audio Cleaned + SAMPLE VIDEO 1Link

    Follow us on Social Media

    Yamla Pagla Deewana - 2011 - 1CD X264 ScrRip - Audio Cleaned + SAMPLE VIDEO 1Link

    Cast :

    Sunny Deol, Dharmendra , Bobby Deol, Kulraj Randhawa, Paresh Rawal, Anupam Kher, Sucheta Khanna, Mukul Dev, Himanshu Malik, Amit Mistri, Digvijay Singh, Krip Suri, Puneet Isaar, Poonam Sinha, Emma Brown

    Synopsis :

    'YAMLA PAGLA DEEWANA', apt to the title brings together the three Deols Dharmendra, Sunny Deol and Bobby Deol as never featured before in a film genre comprising of comedy, action and romance. The film begins in Canada, travels to Banaras and eventually makes its way to Punjab. The Father Son duo of Dharam Singh and Gajodhar Singh (Dharmendra and Bobby Deol) are the biggest conmen in Banaras. Their happy go lucky existence involves drinking and pulling off hilarious cons on unsuspecting people. The only hitch in their perfect albeit notorious life arrives in the form of Paramveer Singh Dhillon (Sunny Deol). A brawny and honest NRI from Vancover, Paramveer lands up in Banaras claiming to be Gajodhar's elder brother separated at childhood. The duo willingly accepts Paramveer into their fold only to exploit his muscle power to serve their con games. Meanwhile Gajodhar falls in love with Saheba (Kulraj Randhawa), a beautiful Sardarni from Punjab. As their romance reaches its peak, her brothers arrive and forcibly take her away. Paramveer saves the day with a crazy plan to win the girl back for Gajodhar which leads them to the rustic heartlands of Punjab. What follows is a rollercoaster ride showcasing the Great Indian Joint Family, Eccentric Relatives, Marriage Mayhem, and a classic case of Mistaken Identities! "Duniyawaalon! Iss kahaani mein Comedy hai! Action hai! Romance hai! Drama hai! Melodrama hai! Emotion hai!... Aur saala bahut saara Confusion hai!!"

    DVD Information

    Ripper: Apka Sallu

    Subs: English (Muxed)

    Source: 8gb @ M4u

    Complete name : C:\Users\SK1\Desktop\Yamla Pagla Deewana - 2011 - 1CD X264 ScrRip - Audio Cleaned - {Team DUS}.mkv
    Format : Matroska
    File size : 684 MiB
    Duration : 2h 37mn
    Overall bit rate : 607 Kbps
    Encoded date : UTC 2011-01-16 11:44:28
    Writing application : mkvmerge v4.0.0 ('The Stars were mine') built on Jun 6 2010 16:18:42
    Writing library : libebml v1.0.0 + libmatroska v1.0.0

    ID : 1
    Format : AVC
    Format/Info : Advanced Video Codec
    Format profile : [email protected]
    Format settings, CABAC : Yes
    Format settings, ReFrames : 4 frames
    Codec ID : V_MPEG4/ISO/AVC
    Duration : 2h 37mn
    Bit rate : 521 Kbps
    Width : 640 pixels
    Height : 272 pixels
    Display aspect ratio : 2.35:1
    Frame rate : 23.976 fps
    Color space : YUV
    Chroma subsampling : 4:2:0
    Bit depth : 8 bits
    Scan type : Progressive
    Bits/(Pixel*Frame) : 0.125
    Stream size : 574 MiB (84%)
    Writing library : x264 core 98 r1649 c54c47d
    Language : English

    ID : 2
    Format : MPEG Audio
    Format version : Version 1
    Format profile : Layer 3
    Mode : Joint stereo
    Mode extension : MS Stereo
    Codec ID : A_MPEG/L3
    Codec ID/Hint : MP3
    Duration : 2h 37mn
    Bit rate mode : Variable
    Bit rate : 84.9 Kbps
    Nominal bit rate : 96.0 Kbps
    Channel(s) : 2 channels
    Sampling rate : 32.0 KHz
    Compression mode : Lossy
    Stream size : 95.5 MiB (14%)
    Writing library : LAME3.98r
    Encoding settings : -m j -V 4 -q 2 -lowpass 15.1 --abr 96
    Language : Hindi



    200 MB links


    Single Link 700 MB




Posting Permissions

  • You may not post new threads
  • You may not post replies
  • You may not post attachments
  • You may not edit your posts