Results 1 to 1 of 1
  1. #1

    Thumbs up DVJ Durek - Eurobeat Videomix 90s (2010)

    Follow us on Social Media







    DVJ Durek - Eurobeat Videomix 90s (2010)[DVD5]



    INFO :
    Code:
    Format                           : MPEG-PS
    File size                        : 3 510 MiB
    Duration                         : 1h 01mn 22s
    Overall bit rate                 : 8 074 Kbps
    
    Video
    ID                               : 224 (0xE0)
    Format                           : MPEG Video
    Format version                   : Version 2
    Format profile                   : [email protected]
    Format settings, BVOP            : Yes
    Format settings, Matrix          : Default
    Format settings, GOP             : M=3, N=15
    Bit rate mode                    : Variable
    Bit rate                         : 7 466 Kbps
    Nominal bit rate                 : 9 500 Kbps
    Width                            : 720 pixels
    Height                           : 480 pixels
    Display aspect ratio             : 4:3
    Frame rate                       : 29.970 fps
    Standard                         : NTSC
    Color space                      : YUV
    Chroma subsampling               : 4:2:0
    Bit depth                        : 8 bits
    Scan type                        : Interlaced
    Scan order                       : Bottom Field First
    Compression mode                 : Lossy
    Bits/(Pixel*Frame)               : 0.721
    Stream size                      : 925 MiB (92%)
    
    Audio
    ID                               : 128 (0x80)
    Format                           : AC-3
    Format/Info                      : Audio Coding 3
    Mode extension                   : CM (complete main)
    Bit rate mode                    : Constant
    Bit rate                         : 448 Kbps
    Channel(s)                       : 6 channels
    Channel positions                : Front: L C R, Side: L R, LFE
    Sampling rate                    : 48.0 KHz
    Bit depth                        : 16 bits
    Compression mode                 : Lossy
    Delay relative to video          : -67ms
    Stream size                      : 55.5 MiB (6%)
    
    Recovery : +5%
    Cover : Yes
    Compression method : Best
    
    Tracklist:
    
    01 - PRESENTACION - DVJ DUREK
    02 - ROCK MY HEART - HADDAWAY
    03 - RUN TO ME - DOUBLE YOU
    04 - BABY BABY - CORONA
    05 - GET A WAY - MAXX
    06 - THINK ABOUT THE WAY - ICE MC
    07 - TONIGHT IS THE NIGHT - LE CLICK
    08 - I GOT TO GIVE IT UP - MASTERBOYS
    09 - IMPOSSIBLE - CAPTAIN HOLLIYOOD PROYECT
    10 - LOVE IS MAGIC - LOFT
    11 - ITS A RAINY DAY - ICE MC
    12 - CLOSE TO YOU - FUN FACTORY
    13 - BE MY LOVER - LA BOUCHE
    14 - UP THE WAY - MR.PRESIDENT
    15 - SET THE WORLD ON FIRE - E-TYPE
    16 - SUPER HERO - DAZE
    17 - DREAMS - BROTHERS ON THE 4H FLOOR
    18 - WOODPECKERS FROM SPACE - VIDEO KIDS
    19 - NO MORE - MAXX
    20 - MISSING IN THE RAIN - TH EXPRESS
    21 - ILL FOLLOW THE SUM - MR.PRESIDENT
    22 - LOVE IS ALL ARROUND - DJ BOBO
    23 - ROSES ARE RED - AQUA
    24 - MALLORCA - LOFT
    25 - FREEDON - DJ BOBO
    26 - NUMBER ONE - ALEXIA
    27 - FEEL THE HEAT OF THE NIGHT - MASTERBOY
    28 - TAKE YOU CHANCE - FUN FACTORY
    29 - ANYTHING - CULTURE BEAT
    30 - LET THE DREAM COME TRUE - DJ BOBO
    21 - QUOVADIS - IMPERIO
    32 - PAIN - FUN FACTORY
    DOWNLOAD :
    Code:
    http://www.fileserve.com/file/uMFAqxF
    http://www.fileserve.com/file/PKrZwKH
    http://www.fileserve.com/file/XG4p8m2
    http://www.fileserve.com/file/BmFYnG6
    MIRROR
    http://download.cz.hellshare.com/du-beat-part1-rar/2216760/
    http://download.cz.hellshare.com/du-beat-part2-rar/2217371/
    http://download.cz.hellshare.com/du-beat-part3-rar/2217879/
    http://download.cz.hellshare.com/du-beat-part4-rar/2218233/
    >>LINKS ARE INTERCHANGEABLE<<
    nO pASS
    ...YOU CAN SHARE MY UPLOADS...

 

 

Posting Permissions

  • You may not post new threads
  • You may not post replies
  • You may not post attachments
  • You may not edit your posts
  •