Results 1 to 1 of 1
  1. #1
    Hot Member www.desirulez.net
    Join Date
    Sep 2009
    Posts
    1,215

    T

    Thumbs up Yeh Dil Hai Nakhrewala - Dil Toh Baccha Hai Ji - (Full Video)

    Follow us on Social Media


















    Format : MPEG-4
    File size : 31.6 MiB
    Duration : 3mn 4s
    Overall bit rate : 1 440 Kbps

    Video
    Format : AVC
    Format/Info : Advanced Video Codec
    Bit rate mode : Variable
    Bit rate : 1 371 Kbps
    Width : 640 pixels
    Height : 268 pixels
    Frame rate : 30.000 fps
    Stream size : 30.1 MiB (95%)

    Audio
    Format : AAC
    Format/Info : Advanced Audio Codec
    Format profile : LC
    Codec ID : 40
    Duration : 3mn 4s
    Bit rate : 64.0 Kbps
    Channel(s) : 2 channels
    Channel positions : Front: L R
    Sampling rate : 44.1 KHz
    Stream size : 1.41 MiB (4%)
    Code:
    http://www.fileserve.com/file/nbHWnrv

 

 

Posting Permissions

  • You may not post new threads
  • You may not post replies
  • You may not post attachments
  • You may not edit your posts
  •