Results 1 to 1 of 1
  1. #1
    Join Date
    Jan 2010

    Thumbs up Yamla Pagla Deewana[2011] ScamRip~1CD~Xvid~MP3~Avi

    Follow us on Social Media

    Yamla Pagla Deewana[2011] ScamRip~1CD~Xvid~MP3~Avi

    Cast :

    Sunny Deol, Dharmendra , Bobby Deol, Kulraj Randhawa, Paresh Rawal, Anupam Kher, Sucheta Khanna, Mukul Dev, Himanshu Malik, Amit Mistri, Digvijay Singh, Krip Suri, Puneet Isaar, Poonam Sinha, Emma Brown

    Synopsis :

    'YAMLA PAGLA DEEWANA', apt to the title brings together the three Deols Dharmendra, Sunny Deol and Bobby Deol as never featured before in a film genre comprising of comedy, action and romance. The film begins in Canada, travels to Banaras and eventually makes its way to Punjab. The Father Son duo of Dharam Singh and Gajodhar Singh (Dharmendra and Bobby Deol) are the biggest conmen in Banaras. Their happy go lucky existence involves drinking and pulling off hilarious cons on unsuspecting people. The only hitch in their perfect albeit notorious life arrives in the form of Paramveer Singh Dhillon (Sunny Deol). A brawny and honest NRI from Vancover, Paramveer lands up in Banaras claiming to be Gajodhar's elder brother separated at childhood. The duo willingly accepts Paramveer into their fold only to exploit his muscle power to serve their con games. Meanwhile Gajodhar falls in love with Saheba (Kulraj Randhawa), a beautiful Sardarni from Punjab. As their romance reaches its peak, her brothers arrive and forcibly take her away. Paramveer saves the day with a crazy plan to win the girl back for Gajodhar which leads them to the rustic heartlands of Punjab. What follows is a rollercoaster ride showcasing the Great Indian Joint Family, Eccentric Relatives, Marriage Mayhem, and a classic case of Mistaken Identities! "Duniyawaalon! Iss kahaani mein Comedy hai! Action hai! Romance hai! Drama hai! Melodrama hai! Emotion hai!... Aur saala bahut saara Confusion hai!!"

    DVD Information


    Format : AVI
    Format/Info : Audio Video Interleave
    Format profile : OpenDML
    File size : 689 MiB
    Duration : 2h 37mn
    Overall bit rate : 611 Kbps
    Writing application : AVI-Mux GUI, Feb 16 201019:42:50

    ID : 0
    Format : MPEG-4 Visual
    Format profile : Advanced [email protected]
    Format settings, BVOP : Yes
    Format settings, QPel : No
    Format settings, GMC : No warppoints
    Format settings, Matrix : Default (H.263)
    Codec ID : XVID
    Codec ID/Hint : XviD
    Duration : 2h 37mn
    Bit rate : 512 Kbps
    Width : 640 pixels
    Height : 288 pixels
    Display aspect ratio : 2.2:1
    Frame rate : 25.000 fps
    Color space : YUV
    Chroma subsampling : 4:2:0
    Bit depth : 8 bits
    Scan type : Progressive
    Compression mode : Lossy
    Bits/(Pixel*Frame) : 0.111
    Stream size : 577 MiB (84%)
    Writing library : XviD 1.2.1 (UTC 2008-12-04)

    ID : 1
    Format : MPEG Audio
    Format version : Version 1
    Format profile : Layer 3
    Mode : Joint stereo
    Mode extension : MS Stereo
    Codec ID : 55
    Codec ID/Hint : MP3
    Duration : 2h 37mn
    Bit rate mode : Constant
    Bit rate : 96.0 Kbps
    Channel(s) : 2 channels
    Sampling rate : 32.0 KHz
    Compression mode : Lossy
    Stream size : 108 MiB (16%)
    Alignment : Aligned on interleaves
    Interleave, duration : 1161 ms (29.03 video frames)
    Interleave, preload duration : 216 ms
    Title : Striker
    Writing library : LAME3.98r
    Encoding settings : -m j -V 4 -q 2 -lowpass 15.1 -b 96





    Sinle Link 700 MB



Posting Permissions

  • You may not post new threads
  • You may not post replies
  • You may not post attachments
  • You may not edit your posts