Results 1 to 1 of 1
  1. #1

    Thumbs up DJ Fifa - Videomix (2010)

    Follow us on Social Media







    DJ Fifa - Videomix (2010)


    INFO :
    Code:
    Format                           : MPEG-PS
    File size                        : 3 150 MiB
    Duration                         : 1h 10mn 36s
    Overall bit rate                 : 6 353 Kbps
    
    Video
    ID                               : 224 (0xE0)
    Format                           : MPEG Video
    Format version                   : Version 2
    Format profile                   : [email protected]
    Format settings, BVOP            : Yes
    Format settings, Matrix          : Default
    Format settings, GOP             : M=3, N=12
    Bit rate mode                    : Variable
    Bit rate                         : 6 003 Kbps
    Nominal bit rate                 : 9 500 Kbps
    Width                            : 720 pixels
    Height                           : 576 pixels
    Display aspect ratio             : 4:3
    Frame rate                       : 25.000 fps
    Standard                         : PAL
    Color space                      : YUV
    Chroma subsampling               : 4:2:0
    Bit depth                        : 8 bits
    Scan type                        : Interlaced
    Scan order                       : Bottom Field First
    Compression mode                 : Lossy
    Bits/(Pixel*Frame)               : 0.579
    Stream size                      : 968 MiB (94%)
    
    Audio
    ID                               : 192 (0xC0)
    Format                           : MPEG Audio
    Format version                   : Version 1
    Format profile                   : Layer 2
    Bit rate mode                    : Constant
    Bit rate                         : 224 Kbps
    Channel(s)                       : 2 channels
    Sampling rate                    : 48.0 KHz
    Compression mode                 : Lossy
    Stream size                      : 36.1 MiB (4%)
    
    Recovery : +5%
    Cover : Yes
    Compression method : Best
    
    Tracklist:
    
    01.Intro
    02.Michael Jackson - They Dont Care About Us
    03.Klaas meets Haddaway - What Is Love
    04.Lady Gaga - Love Game
    05.Selda - 100 Percent Pure Love
    06.Cascada - Because The Night
    07.Infernal - Redefinition
    08.September - Cant Get Over
    09.Keri Hilson - Energy
    10.Velvet - Fix Me
    11.David May - Superstar
    12.N-Trance - Set You Free
    13.Paul Van Dyk - For An Angel 09
    14.Sash - Ecuador
    15.Lasgo - Lost
    16.Kim Wilde - Kids In America
    17.Sash - Encore
    18.Tiesto - Escape Me
    19.Triple Bounce - Talk 2 Me
    20.Sylver - I Hate You Now
    21.The Real Booty Babes - I Kissed A Girl
    22.Siria - Desenchantee
    23.Alex Megane - Something
    24.Andrew Spencer - Stop Loving You
    25.Sash - Adelante
    DOWNLOAD :
    Code:
    http://www.fileserve.com/file/B6u3rRz
    http://www.fileserve.com/file/2twC2dR
    http://www.fileserve.com/file/pvjRY9f
    http://www.fileserve.com/file/4HwrVVD
    MIRROR
    http://download.cz.hellshare.com/fa-fi-part1-rar/2200615/
    http://download.cz.hellshare.com/fa-fi-part2-rar/2201040/
    http://download.cz.hellshare.com/fa-fi-part3-rar/2201480/
    http://download.cz.hellshare.com/fa-fi-part4-rar/2202024/

    >>LINKS ARE INTERCHANGEABLE<<
    nO pASS
    ...YOU CAN SHARE MY UPLOADS...

 

 

Posting Permissions

  • You may not post new threads
  • You may not post replies
  • You may not post attachments
  • You may not edit your posts
  •