Results 1 to 1 of 1
  1. #1

    Default Pop Express Hits Vol. 8 (2010)

    Follow us on Social Media







    Pop Express Hits Vol. 8 (2010)



    INFO :
    Code:
    Format                           : MPEG-PS
    File size                        : 3 870 MiB
    Duration                         : 1h 17mn 46s
    Overall bit rate                 : 7 411 Kbps
    
    Video
    ID                               : 224 (0xE0)
    Format                           : MPEG Video
    Format version                   : Version 2
    Format profile                   : [email protected]
    Format settings, BVOP            : Yes
    Format settings, Matrix          : Default
    Bit rate mode                    : Variable
    Bit rate                         : 6 815 Kbps
    Nominal bit rate                 : 9 383 Kbps
    Width                            : 720 pixels
    Height                           : 576 pixels
    Display aspect ratio             : 4:3
    Frame rate                       : 25.000 fps
    Standard                         : PAL
    Color space                      : YUV
    Chroma subsampling               : 4:2:0
    Bit depth                        : 8 bits
    Scan type                        : Interlaced
    Scan order                       : Top Field First
    Compression mode                 : Lossy
    Bits/(Pixel*Frame)               : 0.657
    Stream size                      : 942 MiB (92%)
    
    Audio
    ID                               : 128 (0x80)
    Format                           : AC-3
    Format/Info                      : Audio Coding 3
    Mode extension                   : CM (complete main)
    Bit rate mode                    : Constant
    Bit rate                         : 448 Kbps
    Channel(s)                       : 6 channels
    Channel positions                : Front: L C R, Side: L R, LFE
    Sampling rate                    : 48.0 KHz
    Bit depth                        : 16 bits
    Compression mode                 : Lossy
    Delay relative to video          : -40ms
    Stream size                      : 61.9 MiB (6%)
    
    Recovery : +5%
    Cover : Yes
    Compression method : Best
    
    TRACKLIST :
    01. MADCON - Freaky Like Me
    02. ITALOBROTEHRS - Radio Hardcore
    03. KYLIE MINOGUE/TAIO CRUZ - Higher
    04. CASCADA - Night Nurse
    05. BLACK EYED PEAS  The Time Of My Life
    06. DUCK SAUCE - Barbra Streisand
    07. SEPTEMBER - Resuscitate Me
    08. MOHOMBI - Bumpy Ride
    09. LOLITA - Joli Garcon
    10. LOU BEGA - Sweet Like Cola
    11. INNA - Deja Vu
    12. JASPER FORKS - River Flows In You
    13. AKCENT - My Passion
    14. JULIE THOMPSON - Shine
    15. BRYAN WILSON - Happy People
    16. SHAKIRA - Loca
    17. PETER LUTS - Can't Fight This Feeling
    18. WYNTER GORDON - Dirty Talk
    19. DJ BIGICE - Vejo Bonito
    20. ANGIE BE - Forever
    21. TIM BERG - Bromance
    22. NE-YO - One In A Million
    23. MICHAEL JACKSON/AKON - Hold My Hand
    DOWNLOAD :
    Code:
    http://www.fileserve.com/file/n7Z56xR
    http://www.fileserve.com/file/Y4DwzM6
    http://www.fileserve.com/file/y5KmT5e
    http://www.fileserve.com/file/bsaNbZJ
    http://www.fileserve.com/file/YFwGkU4
    OR
    http://download.cz.hellshare.com/pop8-part1-rar/2140469/
    http://download.cz.hellshare.com/pop8-part2-rar/2141568/
    http://download.cz.hellshare.com/pop8-part3-rar/2143460/
    http://download.cz.hellshare.com/pop8-part4-rar/2156913/
    http://download.cz.hellshare.com/pop8-part5-rar/2157007/
    >>LINKS ARE INTERCHANGEABLE<<
    nO pASS
    ...YOU CAN SHARE MY UPLOADS...

 

 

Posting Permissions

  • You may not post new threads
  • You may not post replies
  • You may not post attachments
  • You may not edit your posts
  •