Results 1 to 1 of 1
  1. #1

    Thumbs up VA - Euroadrenaline Video Yearmix (2010)

    Follow us on Social Media







    VA - Euroadrenaline Video Yearmix (2010)



    INFO :
    Code:
    Format                           : Matroska
    File size                        : 1.37 GiB
    Duration                         : 1h 34mn
    Overall bit rate                 : 2 067 Kbps
    Encoded date                     : UTC 2010-12-18 02:56:29
    Writing application              : mkvmerge v4.3.0 ('Escape from the Island') built on Sep  5 2010 10:30:51
    Writing library                  : libebml v1.0.0 + libmatroska v1.0.0
    
    Video
    ID                               : 1
    Format                           : AVC
    Format/Info                      : Advanced Video Codec
    Format profile                   : [email protected]
    Format settings, CABAC           : Yes
    Format settings, ReFrames        : 5 frames
    Codec ID                         : V_MPEG4/ISO/AVC
    Duration                         : 1h 34mn
    Bit rate                         : 1 818 Kbps
    Width                            : 688 pixels
    Height                           : 384 pixels
    Display aspect ratio             : 16:9
    Frame rate                       : 25.000 fps
    Color space                      : YUV
    Chroma subsampling               : 4:2:0
    Bit depth                        : 8 bits
    Scan type                        : Progressive
    Bits/(Pixel*Frame)               : 0.275
    Stream size                      : 1.18 GiB (86%)
    Writing library                  : x264 core 105 r1724 b02df7b
    Encoding settings                : cabac=1 / ref=5 / deblock=1:0:0 / analyse=0x1:0x131 / me=umh / subme=8 / psy=1 / psy_rd=1.00:1.00 / mixed_ref=1 / me_range=16 / chroma_me=1 / trellis=1 / 8x8dct=0 / cqm=0 / deadzone=21,11 / fast_pskip=1 / chroma_qp_offset=-4 / threads=6 / sliced_threads=0 / nr=0 / decimate=1 / interlaced=0 / constrained_intra=0 / bframes=5 / b_pyramid=0 / b_adapt=2 / b_bias=0 / direct=3 / weightb=1 / open_gop=0 / weightp=2 / keyint=250 / keyint_min=25 / scenecut=40 / intra_refresh=0 / rc_lookahead=50 / rc=2pass / mbtree=1 / bitrate=1818 / ratetol=1.0 / qcomp=0.60 / qpmin=10 / qpmax=51 / qpstep=4 / cplxblur=20.0 / qblur=0.5 / ip_ratio=1.40 / aq=1:1.00
    
    Audio
    ID                               : 2
    Format                           : MPEG Audio
    Format version                   : Version 1
    Format profile                   : Layer 3
    Mode                             : Joint stereo
    Codec ID                         : A_MPEG/L3
    Codec ID/Hint                    : MP3
    Duration                         : 1h 34mn
    Bit rate mode                    : Variable
    Bit rate                         : 247 Kbps
    Minimum bit rate                 : 32.0 Kbps
    Channel(s)                       : 2 channels
    Sampling rate                    : 44.1 KHz
    Compression mode                 : Lossy
    Stream size                      : 167 MiB (12%)
    Title                            : Swedish
    Writing library                  : LAME3.98r
    Encoding settings                : -m j -V 0 -q 0 -lowpass 19.5 --vbr-new -b 32
    Language                         : Swedish
    
    Recovery : +5%
    Cover : No
    Compression method : Best
    
    TRACKLIST :
          01. Yolanda Be Cool vs DCUP - We No Speak Americano
          02. Max Farenthide - Happy People (bernasconi & farenthide mix)
          03. DJ Sava feat Raluka - I Like (the trumpet)
          04. Mona Kalina feat Farum Korkuloff - Big ****
          05. Mikey Mic - Swedish Girls
          06. Picco - Venga (porter robinson wobble mix)
          07. Ke$ha - We R Who We R (danny darko remix)
          08. Dan Balan - Chica Bomb
          09. Novaspace - Close Your Eyes (trokken remix)
          10. Sarah Connor - Cold As Ice (ph electro remix)
          11. Ace Of Base - All For You (michael mind project remix)
          12. Robbie Rivera feat Fast Eddie - Let Me Sip My Drink
          13. Lou Bega - Sweet Like Cola (rockstroh remix)
          14. Dato - Straight Trough My Heart
          15. Tim Berg - Seek Bromance (avicii vocal mix)
          16. Jasper Forks - River Flows In You (eclipse vocal version) (sonic palms remix)
          17. R3hab & Addy van Der Zwann - Get Get Down
          18. Grum - Can't Shake This Feeling (jean elan remix)
          19. Swedish House Mafia feat Tinie Tempah - Miami 2 Ibiza (sander van doorn remix)
          20. The Coolbreezers - It's Electro (dj's from mars remix)
          21. Michael Mind Project - Feel Your Body
          22. Peter Luts - The Rain
          23. Junior Caldera feat Sophie Ellis Bextor - Can't Fight This Feeling (junior caldera remix)
          24. Dirty South feat Rudy - Phazing (tiesto remix)
          25. Underworld - Always Loved A Film
          26. R.I.O. - Like I Love You
          27. Edward Maya - Stereo Love (scotty remix)
          28. Loona - Vamos A La Playa (aka red remix)
          29. Inna - Hot (mike candys & jack holiday bootleg mix)
          30. Armin Van Buuren feat Sophie Ellis Bextor - Not Giving Up On Love
          31. ATB - 9 Pm (reloaded)
          32. Kalwi & Remi - Kiss
          33. Markus Schulz - Rain
          34. Tiesto - Speed Rail
          35. Sol Noir - Superstring (dave darell remix)
          36. Alchemist Project - Love Is Gone
          37. Sylver - Turn The Tide 2010
          38. Lasgo - Tonight
          39. Zippora - Lotus Eater (Reloaded) (ron van der beuken remix)
          40. Markus Schulz feat Justine Suissa - Perception (super8 & tab remix)
          41. Cosmic Gate - Exploration Of Space 2010 (back 2 the future remix)
          42. Milk Inc - Chasing The Wind
          43. Milk Inc - Storm (wild ace remix)
          44. Lolita - Joli Garcon (ron bon beat project remix)
          45. Darius & Finlay feat Nicco - Rock To The Beat (rocco & bass-t remix)
          46. Rocco & Bass-T - Our Generation
          47. PH Electro - Englishman In New York (ti-mo remix)
          48. Daruso - Since You Been Gone (the real booty babes remix)
          49. Loveline - Right Now (ryan thistlebeck remix)
          50. Milk Inc. - Blackout (ryan thistlebeck remix)
          51. Brooklyn Bounce & Alex M vs Marc van Damme - Crazy
          52. Groove Coverage - Innocent (cc.k remix)
          53. Rob Mayth - Feel My Love
          54. R.I.O. - Hot Girl (dan winter remix)
          55. DJ Gollum vs Basslovers United - Narcotic (black toys remix)
          56. Lena Meyer Landrut - Satellite (jens o vs ti-mo bootleg mix)
          57. Crystal Lake - Your Style
          58. Manian - Loco (silver nikan vs danceboy poco mix)
          59. Alex M. - I Believe (dj tht & ced tecknoboy remix)
          60. Brooklyn Bounce - Bass, Beats And Melody Reloaded (accuface high energy remix)
          61. Basslovers United - Ghetto Supastar (dj gollum remix)
          62. Roll Deep feat Jodie Connor - Good Times (rainDropz bootleg mix)
          63. Cascada - Pyromania (frisco remix)
    DOWNLOAD :
    Code:
    http://www.fileserve.com/file/TJzEFMB
    http://www.fileserve.com/file/hr4EwCW
    OR
    http://download.cz.hellshare.com/evy-part1-rar/2159291/
    http://download.cz.hellshare.com/evy-part2-rar/2159512/
    >>LINKS ARE INTERCHANGEABLE<<
    nO pASS
    ...YOU CAN SHARE MY UPLOADS...

 

 

Posting Permissions

  • You may not post new threads
  • You may not post replies
  • You may not post attachments
  • You may not edit your posts
  •