Results 1 to 1 of 1
  1. #1

    Thumbs up DJ Panduro - Video Yearmix (2010)

    Follow us on Social Media







    DJ Panduro - Video Yearmix (2010)



    INFO :
    Code:
    Format                           : MPEG-4
    Format profile                   : Base Media
    Codec ID                         : isom
    File size                        : 1.76 GiB
    Duration                         : 48mn 13s
    Overall bit rate                 : 5 215 Kbps
    Writing application              : Lavf52.32.0
    
    Video
    ID                               : 1
    Format                           : MPEG-4 Visual
    Format profile                   : [email protected]
    Format settings, BVOP            : No
    Format settings, QPel            : No
    Format settings, GMC             : No warppoints
    Format settings, Matrix          : Default (H.263)
    Codec ID                         : 20
    Duration                         : 48mn 13s
    Bit rate mode                    : Variable
    Bit rate                         : 5 059 Kbps
    Width                            : 1 280 pixels
    Height                           : 720 pixels
    Display aspect ratio             : 16:9
    Frame rate mode                  : Constant
    Frame rate                       : 23.976 fps
    Color space                      : YUV
    Chroma subsampling               : 4:2:0
    Bit depth                        : 8 bits
    Scan type                        : Progressive
    Compression mode                 : Lossy
    Bits/(Pixel*Frame)               : 0.229
    Stream size                      : 1.70 GiB (97%)
    Writing library                  : Lavc52.22.3
    
    Audio
    ID                               : 2
    Format                           : AAC
    Format/Info                      : Advanced Audio Codec
    Format profile                   : LC
    Codec ID                         : 40
    Duration                         : 48mn 13s
    Bit rate mode                    : Variable
    Bit rate                         : 152 Kbps
    Channel(s)                       : 2 channels
    Channel positions                : Front: L R
    Sampling rate                    : 44.1 KHz
    Compression mode                 : Lossy
    Stream size                      : 52.4 MiB (3%)
    
    Recovery : +5%
    Cover : Yes
    Compression method : Best
    
    Tracklist:
    01. Intro
    02. Rasmus Seebach - Lidt I Fem
    03. Iyaz - Solo
    04. Black Eyed Peas - Imma Be
    05. Shakira feat. Freshlyground - Waka Waka (This Time For Africa)
    06. Medina - Vi To
    07. Rasmus Seebach - Natteravn
    08. Black Eyed Peas - Rock That Body
    09. Clara Sofie Feat. Rune RK - Naar Tiden Gaar Baglaens
    10. Electric Lady Lab - You And Me
    11. Enrique Iglesias - I Like It
    12. Kato Feat. Outlandish - Desert Walk
    13. Yolanda Be Cool Vs. Dcup - We Speak No Americano
    14. Ne-Yo - Beautiful Monster 
    15. Timbaland Feat. Katy Perry - If We Ever Meet Again
    16. Svenstrup & Vendelboe Feat Karen - I Nat
    17. Nephew - The Danish Way To Rock
    18. Adam Lambert - Whataya Want From Me
    19. Lady Gaga - Alejandro
    20. Kato Feat Uso And Johnson - Hey Shorty Yeah Yeah
    21. Hurts - Wonderful Life
    22. Kelly Rowland Ft. David Guetta - Commander
    23. Train - Hey Soul Sister
    24. Aligator - Gi Det Til Dig
    25. Taio Cruz - Dynamite
    25. Edward Maya And Vika Jigulina - Stereo Love
    26. Akcent - Thats My Name
    27. ATB - Could You Believe
    28. Sidney Samson - Riverside
    29. Jason Derulo - In My Head
    30. Bruno Mars - Just The Way You Are
    31. Eminem Feat. Rihanna - Love The Way You Lie
    32. Burhan G Feat. Medina - Mest Ondt
    33. Mohombi - Bumpy Ride
    34. Husspektakel - Split Klubben Ad
    35. Alphabeat - Heatwave
    36. Take That - The Flood
    37. Rihanna - Only Girl (In The World)
    38. Usher Feat. Pitbull - DJ Got Us Fallin In Love
    39. Robyn - Dancing On My Own
    40. Outro
    DOWNLOAD :
    Code:
    http://www.fileserve.com/file/F8X7bJ2
    http://www.fileserve.com/file/MwdUmjK
    OR
    http://download.cz.hellshare.com/pan-ro-part1-rar/2179813/
    http://download.cz.hellshare.com/pan-ro-part2-rar/2181688/
    >>LINKS ARE INTERCHANGEABLE<<
    nO pASS
    ...YOU CAN SHARE MY UPLOADS...

 

 

Posting Permissions

  • You may not post new threads
  • You may not post replies
  • You may not post attachments
  • You may not edit your posts
  •