Results 1 to 1 of 1
  1. #1

    Thumbs up Visage - Visage (2006)

    Follow us on Social Media







    Visage - Visage (2006)[DVD9]



    INFO :
    Code:
    Format                           : MPEG-PS
    File size                        : 5 290 MiB
    Duration                         : 55mn 
    Overall bit rate                 : 9 814 Kbps
    
    Video
    ID                               : 224 (0xE0)
    Format                           : MPEG Video
    Format version                   : Version 2
    Format profile                   : [email protected]
    Format settings, BVOP            : Yes
    Format settings, Matrix          : Default
    Bit rate mode                    : Variable
    Bit rate                         : 7 500 Kbps
    Width                            : 720 pixels
    Height                           : 480 pixels
    Display aspect ratio             : 4:3
    Frame rate                       : 29.970 fps
    Standard                         : NTSC
    Color space                      : YUV
    Chroma subsampling               : 4:2:0
    Bit depth                        : 8 bits
    Scan type                        : Interlaced
    Scan order                       : Top Field First
    Compression mode                 : Lossy
    Bits/(Pixel*Frame)               : 0.724
    Stream size                      : 764 MiB (75%)
    
    Audio #1
    ID                               : 137 (0x89)
    Format                           : DTS
    Format/Info                      : Digital Theater Systems
    Duration                         : 14mn 34s
    Bit rate mode                    : Constant
    Bit rate                         : 755 Kbps
    Channel(s)                       : 6 channels
    Channel positions                : Front: L C R, Side: L R, LFE
    Sampling rate                    : 48.0 KHz
    Bit depth                        : 16 bits
    Compression mode                 : Lossy
    Stream size                      : 78.7 MiB (8%)
    
    Audio #2
    ID                               : 160 (0xA0)
    Format                           : PCM
    Format settings, Endianness      : Big
    Format settings, Sign            : Signed
    Muxing mode                      : DVD-Video
    Bit rate mode                    : Constant
    Bit rate                         : 1 536 Kbps
    Channel(s)                       : 2 channels
    Channel positions                : Front: L R
    Sampling rate                    : 48.0 KHz
    Bit depth                        : 16 bits
    Stream size                      : 160 MiB (16%)
    
    Recovery : +5%
    Cover : No
    Compression method : Best
    
    Tracklist :
    01. Visage (3:45)
    02. The Steps (2:07)*
    03. Fade To Grey (3:22)
    04. Interview (0:10)*
    05. The Dancer (1:46)*
    06. The Damned Don't Cry (3:47)
    07. Pleasure Boys (3:34)
    08. Mind Of A Toy (3:35)
    09. Whispers (0:16)*
    10. Night Train (3:46)
    11. Can You Hear Me (1:25)*
    12. Casualty (1:41)
    13. Intro (0:32)*
    14. The Horseman (3:06)
    15. Yesterday's Shadow (6:20)
    16. Love Glove (3:54)
    17. Wild Life (3:48)
    18. Beat Boy (3:25)
    19. Can You Hear Me (1:47)*

    DOWNLOAD :
    Code:
    http://www.fileserve.com/file/sjPVRZe
    http://www.fileserve.com/file/DGMgGyg
    http://www.fileserve.com/file/QKsmJFa
    http://www.fileserve.com/file/wWPPCgC
    http://www.fileserve.com/file/smRFZ2c
    OR
    http://download.cz.hellshare.com/visage-part1-rar/2190387/
    http://download.cz.hellshare.com/visage-part2-rar/2196347/
    http://download.cz.hellshare.com/visage-part3-rar/2196995/
    http://download.cz.hellshare.com/visage-part4-rar/2197714/
    http://download.cz.hellshare.com/visage-part5-rar/2197811/

    >>LINKS ARE INTERCHANGEABLE<<
    nO pASS
    ...YOU CAN SHARE MY UPLOADS...

 

 

Posting Permissions

  • You may not post new threads
  • You may not post replies
  • You may not post attachments
  • You may not edit your posts
  •