Results 1 to 1 of 1
  1. #1
    Tech Team www.desirulez.net
    Join Date
    Dec 2010
    Location
    India
    Posts
    434

    T

    Red face Manmadhan Ambu(2010)1Cd - UNtouched - PDVDRip - XviD

    Follow us on Social Media








    Manmadhan Ambu(2010)1Cd - UNtouched - PDVDRip - XviD



    General
    Complete name :mma.m4v
    Format : MPEG-4
    Format profile : Base Media / Version 2
    Codec ID : mp42
    File size : 750 MiB
    Duration : 2h 28mn
    Overall bit rate : 708 Kbps
    Encoded date : UTC 2011-01-10 09:33:59
    Tagged date : UTC 2011-01-10 09:57:25
    Writing application : HandBrake 0.9.5 2011010300

    Video
    ID : 1
    Format : MPEG-4 Visual
    Format profile : [email protected]
    Format settings, BVOP : No
    Format settings, QPel : No
    Format settings, GMC : No warppoints
    Format settings, Matrix : Default (H.263)
    Codec ID : 20
    Duration : 2h 28mn
    Bit rate mode : Variable
    Bit rate : 545 Kbps
    Maximum bit rate : 1 456 Kbps
    Width : 352 pixels
    Height : 240 pixels
    Display aspect ratio : 4:3
    Frame rate mode : Constant
    Frame rate : 29.970 fps
    Standard : NTSC
    Color space : YUV
    Chroma subsampling : 4:2:0
    Bit depth : 8 bits
    Scan type : Progressive
    Compression mode : Lossy
    Bits/(Pixel*Frame) : 0.215
    Stream size : 577 MiB (77%)
    Writing library : Lavc52.94.3
    Encoded date : UTC 2011-01-10 09:34:00
    Tagged date : UTC 2011-01-10 09:57:25

    Audio
    ID : 2
    Format : AAC
    Format/Info : Advanced Audio Codec
    Format profile : LC
    Codec ID : 40
    Duration : 2h 28mn
    Bit rate mode : Variable
    Bit rate : 160 Kbps
    Maximum bit rate : 207 Kbps
    Channel(s) : 2 channels
    Channel positions : Front: L R
    Sampling rate : 48.0 KHz
    Compression mode : Lossy
    Stream size : 169 MiB (23%)
    Encoded date : UTC 2011-01-10 09:34:00
    Tagged date : UTC 2011-01-10 09:57:25









    DOWNLOAD FROM DUCKLOAD::
    Code:
    http://www.duckload.com/download/2083057/mma.m4v
    DOWNLOAD FROM CRAMIT::
    Code:
    http://cramit.in/dlzou5jcf6eu
    DOWNLOAD FROM FreakShare::
    Code:
    http://freakshare.com/files/9dci28jg/mma.m4v.html

    CREDITS TO ORIGINAL RELEASER


 

 

Posting Permissions

  • You may not post new threads
  • You may not post replies
  • You may not post attachments
  • You may not edit your posts
  •