Results 1 to 1 of 1
  1. #1
    Tech Team www.desirulez.net
    Join Date
    Dec 2010
    Location
    India
    Posts
    434

    T

    Smile Basha (1995) 1CD - DVDRip - Xvid - Subs - Single Link

    Follow us on Social Media









    Basha (1995) 1CD - DVDRip - Xvid - Subs - Single Link





    General
    Complete name : Basha (1995) 1CD - DVDRip - Xvid - Subs.mkv
    Format : Matroska
    File size : 746 MiB
    Duration : 2h 24mn
    Overall bit rate : 723 Kbps
    Writing application : Lavf52.0.0
    Writing library : Lavf52.0.0

    Video
    ID : 1
    Format : MPEG-4 Visual
    Format profile : [email protected]
    Format settings, BVOP : No
    Format settings, QPel : No
    Format settings, GMC : No warppoints
    Format settings, Matrix : Default (H.263)
    Codec ID : V_MPEG4/ISO/ASP
    Codec ID/Info : Advanced Simple Profile
    Duration : 2h 24mn
    Bit rate : 581 Kbps
    Width : 624 pixels
    Height : 304 pixels
    Display aspect ratio : 2.053
    Frame rate mode : Constant
    Frame rate : 24.000 fps
    Color space : YUV
    Chroma subsampling : 4:2:0
    Bit depth : 8 bits
    Scan type : Progressive
    Bits/(Pixel*Frame) : 0.128
    Stream size : 599 MiB (80%)
    Writing library : Lavc52.48.0
    Language : Tamil

    Audio
    ID : 2
    Format : MPEG Audio
    Format version : Version 1
    Format profile : Layer 2
    Codec ID : A_MPEG/L2
    Codec ID/Hint : MP2
    Duration : 2h 24mn
    Bit rate mode : Constant
    Bit rate : 128 Kbps
    Channel(s) : 2 channels
    Sampling rate : 44.1 KHz
    Bit depth : 16 bits
    Stream size : 132 MiB (18%)
    Language : Tamil








    DOWNLOAD FROM DUCKLOAD::
    Code:
    http://www.duckload.com/dl/qt6P2
    SUBS::
    http://www.duckload.com/dl/HZ6P2

    CREDITS TO Original Releaser


 

 

Posting Permissions

  • You may not post new threads
  • You may not post replies
  • You may not post attachments
  • You may not edit your posts
  •