Results 1 to 1 of 1
  1. #1

    Wink Villu(2009) 1CD - Ayngaran - DVDRip - XViD - Single Link

    Follow us on Social Media







    Villu(2009) 1CD - Ayngaran - DVDRip - XViD




    General
    Complete name : Villu.avi
    Format : AVI
    Format/Info : Audio Video Interleave
    Format profile : OpenDML
    File size : 702 MiB
    Duration : 2h 31mn
    Overall bit rate : 646 Kbps

    Video
    ID : 0
    Format : MPEG-4 Visual
    Format profile : Advanced [email protected]
    Format settings, BVOP : Yes
    Format settings, QPel : No
    Format settings, GMC : No warppoints
    Format settings, Matrix : Default (MPEG)
    Codec ID : XVID
    Codec ID/Hint : XviD
    Duration : 2h 31mn
    Bit rate : 553 Kbps
    Width : 624 pixels
    Height : 256 pixels
    Display aspect ratio : 2.40:1
    Frame rate : 23.976 fps
    Color space : YUV
    Chroma subsampling : 4:2:0
    Bit depth : 8 bits
    Scan type : Progressive
    Compression mode : Lossy
    Bits/(Pixel*Frame) : 0.144
    Stream size : 600 MiB (86%)
    Writing library : XviD 1.2.1 (UTC 2008-12-04)

    Audio
    ID : 1
    Format : MPEG Audio
    Format version : Version 1
    Format profile : Layer 3
    Mode : Joint stereo
    Codec ID : 55
    Codec ID/Hint : MP3
    Duration : 2h 25mn
    Bit rate mode : Variable
    Bit rate : 90.0 Kbps
    Channel(s) : 2 channels
    Sampling rate : 32.0 KHz
    Compression mode : Lossy
    Stream size : 93.7 MiB (13%)
    Alignment : Aligned on interleaves
    Interleave, duration : 36 ms (0.86 video frame)
    Interleave, preload duration : 183 ms
    Writing library : LAME3.98r
    Encoding settings : -m j -V 4 -q 2 -lowpass 15.1 --abr 90









    DOWNLOAD FROM DUCKLOAD::
    Code:
    http://www.duckload.com/download/2095883/Villu.avi
    DOWNLOAD FROM FreakShare::
    Code:
    http://freakshare.com/files/rr58x7fc/Villu.avi.html

    CREDITS TO Original Releaser


 

 

Posting Permissions

  • You may not post new threads
  • You may not post replies
  • You may not post attachments
  • You may not edit your posts
  •