Results 1 to 1 of 1
  1. #1
    Tech Team www.desirulez.net
    Join Date
    Dec 2010
    Location
    India
    Posts
    434

    T

    Wink The Day the Earth Stood Still (2008) Bluray Rip - 1080p - Dual Audio(Hindi-Eng)

    Follow us on Social Media









    The Day the Earth Stood Still (2008) Bluray Rip - 1080p - Dual Audio(Hindi-Eng)






    SiZE: 1.65 GiB
    iMDB: The Day the Earth Stood Still (2008) - IMDb
    RATiNG: 5.5/10 (53,940 votes)
    RElEAsE DaTE: 12 December 2008 UsA
    AUDIO: Hindi, English
    SubTiTles: Hindi, English
    RiP Date: 2011.01.11
    EnCoDeR: Vickey007
    Sample: DuckLoad.com Easy streaming
    Director: Scott Derrickson
    General
    Complete name : The Day the Earth Stood Still (2008) Bluray Rip - 1080p - Dual Audio(HinDi-EnG)
    Format : Matroska
    File size : 1.64 GiB
    Duration : 1h 43mn
    Overall bit rate : 2 270 Kbps
    Encoded date : UTC 2011-01-10 15:34:16
    Writing application : mkvmerge v4.4.0 ('Die Wiederkehr') built on Oct 31 2010 21:52:48
    Writing library : libebml v1.0.0 + libmatroska v1.0.0

    Video
    ID : 1
    Format : AVC
    Format/Info : Advanced Video Codec
    Format profile : [email protected]
    Format settings, CABAC : Yes
    Format settings, ReFrames : 4 frames
    Muxing mode : Container [email protected]
    Codec ID : V_MPEG4/ISO/AVC
    Duration : 1h 43mn
    Bit rate : 1 553 Kbps
    Width : 1 920 pixels
    Height : 818 pixels
    Display aspect ratio : 2.35:1
    Frame rate mode : Variable
    Frame rate : 23.976 fps
    Resolution : 8 bits
    Colorimetry : 4:2:0
    Scan type : Progressive
    Bits/(Pixel*Frame) : 0.041
    Stream size : 1.12 GiB (68%)
    Writing library : x264 core 106 r1732 b20059a
    Encoding settings : cabac=1 / ref=3 / deblock=1:0:0 / analyse=0x3:0x113 / me=hex / subme=7 / psy=1 / psy_rd=1.00:0.00 / mixed_ref=1 / me_range=16 / chroma_me=1 / trellis=1 / 8x8dct=1 / cqm=0 / deadzone=21,11 / fast_pskip=1 / chroma_qp_offset=-2 / threads=6 / sliced_threads=0 / nr=0 / decimate=1 / interlaced=0 / constrained_intra=0 / bframes=3 / b_pyramid=2 / b_adapt=1 / b_bias=0 / direct=1 / weightb=1 / open_gop=0 / weightp=2 / keyint=250 / keyint_min=23 / scenecut=40 / intra_refresh=0 / rc_lookahead=40 / rc=crf / mbtree=1 / crf=26.0 / qcomp=0.60 / qpmin=10 / qpmax=51 / qpstep=4 / ip_ratio=1.40 / aq=1:1.00

    Audio #1
    ID : 2
    Format : AC-3
    Format/Info : Audio Coding 3
    Codec ID : A_AC3
    Duration : 1h 43mn
    Bit rate mode : Constant
    Bit rate : 448 Kbps
    Channel(s) : 6 channels
    Channel positions : Front: L C R, Surround: L R, LFE
    Sampling rate : 48.0 KHz
    Video delay : -42ms
    Stream size : 332 MiB (20%)
    Language : Hindi

    Audio #2
    ID : 3
    Format : AC-3
    Format/Info : Audio Coding 3
    Codec ID : A_AC3
    Duration : 1h 43mn
    Bit rate mode : Constant
    Bit rate : 224 Kbps
    Channel(s) : 2 channels
    Channel positions : L R
    Sampling rate : 48.0 KHz
    Video delay : -42ms
    Stream size : 166 MiB (10%)









    DOWNLOAD FROM DUCKLOAD::
    Code:
    http://www.duckload.com/download/2094181/TDTE_Stood.Still.mkv
    SUBS::
    http://www.duckload.com/download/2094046/TDTE_Stood.Still.sub
    SAMPLE::
    http://www.duckload.com/download/2094037/sample-TDTESS.1080p.mkv
    DOWNLOAD FROM FreakShare::
    Code:
    http://freakshare.com/files/4llxf5yy/TDTE-Stood.Still.mkv.html
    SUBS::
    http://freakshare.com/files/y2d1yjnm/TDTE-Stood.Still.sub.html
    SAMPLE::
    http://freakshare.com/files/duqb1ccg/sample-TDTESS.1080p.mkv.html

    CREDITS TO ORIGINAL RELEASER


 

 

Posting Permissions

  • You may not post new threads
  • You may not post replies
  • You may not post attachments
  • You may not edit your posts
  •