Results 1 to 1 of 1
  1. #1

    Wink Fida(2004)900MB - DVDRip - XVid - Single Link

    Follow us on Social Media






    Fida(2004)900MB - DVDRip - XVid - Single Link



    General
    Complete name : Fida.2004.DvDRip..avi
    Format : AVI
    Format/Info : Audio Video Interleave
    File size : 993 MiB
    Duration : 2h 1mn
    Overall bit rate : 1 141 Kbps
    Writing application : Lavf52.0.0

    Video
    ID : 0
    Format : xvid
    Codec ID : xvid
    Duration : 2h 1mn
    Bit rate : 1 063 Kbps
    Width : 608 pixels
    Height : 256 pixels
    Display aspect ratio : 2.35:1
    Frame rate : 23.976 fps
    Bits/(Pixel*Frame) : 0.285
    Stream size : 925 MiB (93%)

    Audio
    ID : 1
    Format : 706D
    Codec ID : 706D
    Duration : 2h 1mn
    Bit rate : 64.0 Kbps
    Channel(s) : 2 channels
    Sampling rate : 48.0 KHz
    Bit depth : 16 bits
    Stream size : 55.8 MiB (6%)
    Interleave, duration : 21 ms (0.51 video frame)
    Interleave, preload duration : 4 ms









    DOWNLOAD FROM DUCKLOAD::
    Code:
    http://www.duckload.com/dl/sShP2

    CREDITS TO ORIGINAL RELEASER


 

 

Posting Permissions

  • You may not post new threads
  • You may not post replies
  • You may not post attachments
  • You may not edit your posts
  •