Results 1 to 1 of 1
  1. #1
    Tech Team www.desirulez.net
    Join Date
    Dec 2010
    Location
    India
    Posts
    434

    T

    Wink Happy Happy Ga (2010)1CD - DVDRip - XVid - AAC - 5.1Audio

    Follow us on Social Media









    Happy Happy Ga (2010)1CD - DVDRip - XVid - AAC - 5.1Audio





    General
    Complete name :Happy Happy Ga (2010)1CD - DVDRip - XVid.m4v
    Format : MPEG-4
    Format profile : Base Media / Version 2
    Codec ID : mp42
    File size : 791 MiB
    Duration : 2h 29mn
    Overall bit rate : 738 Kbps
    Encoded date : UTC 2011-01-11 04:09:01
    Tagged date : UTC 2011-01-11 07:58:29
    Writing application : HandBrake 0.9.5 2011010300

    Video
    ID : 1
    Format : AVC
    Format/Info : Advanced Video Codec
    Format profile : [email protected]
    Format settings, CABAC : Yes
    Format settings, ReFrames : 4 frames
    Format settings, GOP : M=3, N=12
    Codec ID : avc1
    Codec ID/Info : Advanced Video Coding
    Duration : 2h 29mn
    Bit rate mode : Variable
    Bit rate : 573 Kbps
    Width : 704 pixels
    Height : 358 pixels
    Display aspect ratio : 2.35:1
    Original display aspect ratio : 2.35:1
    Frame rate mode : Constant
    Frame rate : 29.970 fps
    Color space : YUV
    Chroma subsampling : 4:2:0
    Bit depth : 8 bits
    Scan type : Progressive
    Bits/(Pixel*Frame) : 0.076
    Stream size : 614 MiB (78%)
    Writing library : x264 core 112
    Encoding settings : cabac=1 / ref=2 / deblock=1:0:0 / analyse=0x1:0x111 / me=hex / subme=6 / psy=1 / psy_rd=1.00:0.00 / mixed_ref=0 / me_range=16 / chroma_me=1 / trellis=0 / 8x8dct=0 / cqm=0 / deadzone=21,11 / fast_pskip=1 / chroma_qp_offset=-2 / threads=1 / sliced_threads=0 / nr=0 / decimate=1 / interlaced=0 / constrained_intra=0 / bframes=2 / b_pyramid=2 / b_adapt=1 / b_bias=0 / direct=1 / weightb=0 / open_gop=0 / weightp=2 / keyint=300 / keyint_min=29 / scenecut=40 / intra_refresh=0 / rc_lookahead=40 / rc=2pass / mbtree=1 / bitrate=573 / ratetol=1.0 / qcomp=0.60 / qpmin=3 / qpmax=51 / qpstep=4 / cplxblur=20.0 / qblur=0.5 / ip_ratio=1.40 / aq=1:1.00
    Encoded date : UTC 2011-01-11 04:09:01
    Tagged date : UTC 2011-01-11 07:58:29
    Color primaries : BT.601-6 525, BT.1358 525, BT.1700 NTSC, SMPTE 170M
    Transfer characteristics : BT.709-5, BT.1361
    Matrix coefficients : BT.601-6 525, BT.1358 525, BT.1700 NTSC, SMPTE 170M

    Audio
    ID : 2
    Format : AAC
    Format/Info : Advanced Audio Codec
    Format profile : LC
    Codec ID : 40
    Duration : 2h 29mn
    Bit rate mode : Variable
    Bit rate : 160 Kbps
    Maximum bit rate : 281 Kbps
    Channel(s) : 2 channels
    Channel positions : Front: L R
    Sampling rate : 48.0 KHz
    Compression mode : Lossy
    Stream size : 171 MiB (22%)
    Language : Telugu
    Encoded date : UTC 2011-01-11 04:09:02
    Tagged date : UTC 2011-01-11 07:58:25








    DOWNLOAD FROM DUCKLOAD::
    Code:
    http://www.duckload.com/dl/ihhP2

    CREDITS TO Original Releaser


 

 

Posting Permissions

  • You may not post new threads
  • You may not post replies
  • You may not post attachments
  • You may not edit your posts
  •