Results 1 to 1 of 1
  1. #1
    Banned www.desirulez.net
    Join Date
    Jan 2010
    Posts
    2,522

    T

    Thumbs up Umang - 9th January 2011 - Divx - HQ - Ind -

    Follow us on Social Media







    Umang - 9th January 2011 - Divx - HQ - Ind -



    General
    Complete name : D:\ALL VIDEOS HERE\CURRENT VIDEO RECORDED\Umang - 9th January 2011 - Divx - HQ - Ind -
    Format : AVI
    Format/Info : Audio Video Interleave
    Format profile : OpenDML
    File size : 2.01 GiB
    Duration : 2h 7mn
    Overall bit rate : 2 253 Kbps
    Writing library : Boilsoft Joiner build 2411/release

    Video
    ID : 0
    Format : MPEG-4 Visual
    Format profile : [email protected]
    Format settings, BVOP : No
    Format settings, QPel : No
    Format settings, GMC : No warppoints
    Format settings, Matrix : Default (H.263)
    Codec ID : DIVX
    Codec ID/Info : Project Mayo
    Codec ID/Hint : DivX 4
    Duration : 2h 7mn
    Bit rate : 2 048 Kbps
    Width : 720 pixels
    Height : 576 pixels
    Display aspect ratio : 5:4
    Frame rate : 25.000 fps
    Standard : PAL
    Color space : YUV
    Chroma subsampling : 4:2:0
    Bit depth : 8 bits
    Scan type : Progressive
    Compression mode : Lossy
    Bits/(Pixel*Frame) : 0.198
    Stream size : 1.83 GiB (91%)
    Writing library : Lavc51.54.0

    Audio
    ID : 1
    Format : MPEG Audio
    Format version : Version 1
    Format profile : Layer 3
    Mode : Joint stereo
    Mode extension : MS Stereo
    Codec ID : 55
    Codec ID/Hint : MP3
    Duration : 2h 7mn
    Bit rate mode : Constant
    Bit rate : 192 Kbps
    Channel(s) : 2 channels
    Sampling rate : 44.1 KHz
    Compression mode : Lossy
    Stream size : 175 MiB (9%)
    Alignment : Split accross interleaves
    Interleave, duration : 40 ms (1.00 video frame)
    Interleave, preload duration : 500 ms



    -------------------------
    Post Information
    -------------------------
    Ripped by............: yashpop
    Uploaded by............: Deejam
    Posted on............: 09/01/2011
    Sample : Not Available


    Code:
    http://www.fileserve.com/file/me6hD8H/Umang.9th_January_2011.Divx.HQ.By.Deejam.part4.rar
    http://www.fileserve.com/file/PdG35vy/Umang.9th_January_2011.Divx.HQ.By.Deejam.part1.rar
    http://www.fileserve.com/file/KbT4fm7/Umang.9th_January_2011.Divx.HQ.By.Deejam.part3.rar
    http://www.fileserve.com/file/xbdgXgk/Umang.9th_January_2011.Divx.HQ.By.Deejam.part2.rar
    http://www.fileserve.com/file/qxWh4kG/Umang.9th_January_2011.Divx.HQ.By.Deejam.part6.rar
    or


    Code:
    http://hotfile.com/dl/95628821/262f717/Umang.9th_January_2011.Divx.HQ.By.Deejam.part1.rar.html
    http://hotfile.com/dl/95629524/22787ac/Umang.9th_January_2011.Divx.HQ.By.Deejam.part2.rar.html
    http://hotfile.com/dl/95629664/f96def7/Umang.9th_January_2011.Divx.HQ.By.Deejam.part3.rar.html
    http://hotfile.com/dl/95628967/01fac0b/Umang.9th_January_2011.Divx.HQ.By.Deejam.part4.rar.html
    http://hotfile.com/dl/95629043/686a8f5/Umang.9th_January_2011.Divx.HQ.By.Deejam.part5.rar.html
    http://hotfile.com/dl/95628409/0cf1b91/Umang.9th_January_2011.Divx.HQ.By.Deejam.part6.rar.html

    or


    Code:
    http://www.filesonic.com/file/55013117/Umang.9th_January_2011.Divx.HQ.By.Deejam.part1.rar
    http://www.filesonic.com/file/55007843/Umang.9th_January_2011.Divx.HQ.By.Deejam.part2.rar
    http://www.filesonic.com/file/55007769/Umang.9th_January_2011.Divx.HQ.By.Deejam.part3.rar
    http://www.filesonic.com/file/55007741/Umang.9th_January_2011.Divx.HQ.By.Deejam.part4.rar
    http://www.filesonic.com/file/55007803/Umang.9th_January_2011.Divx.HQ.By.Deejam.part5.rar
    http://www.filesonic.com/file/55013023/Umang.9th_January_2011.Divx.HQ.By.Deejam.part6.rar





 

 

Posting Permissions

  • You may not post new threads
  • You may not post replies
  • You may not post attachments
  • You may not edit your posts
  •