Results 1 to 1 of 1
  1. #1
    Tech Team www.desirulez.net
    Join Date
    Dec 2010
    Location
    India
    Posts
    434

    T

    Red face No Problem (2010)900Mb - DVDRip - XViD - AAC

    Follow us on Social Media







    No Problem (2010)900Mb - DVDRip - XViD - AAC





    General
    Complete name : No Problem (2010)900Mb - DVDRip - XViD - AAC.mp4
    Format : MPEG-4
    Format profile : Base Media
    Codec ID : isom
    File size : 936 MiB
    Duration : 2h 20mn
    Overall bit rate : 935 Kbps

    Video
    ID : 1
    Format : MPEG-4 Visual
    Format profile : [email protected]
    Format settings, BVOP : No
    Format settings, QPel : No
    Format settings, GMC : No warppoints
    Format settings, Matrix : Default (H.263)
    Codec ID : 20
    Duration : 2h 20mn
    Bit rate mode : Variable
    Bit rate : 867 Kbps
    Width : 608 pixels
    Height : 256 pixels
    Display aspect ratio : 2.35:1
    Frame rate mode : Constant
    Frame rate : 23.976 fps
    Color space : YUV
    Chroma subsampling : 4:2:0
    Bit depth : 8 bits
    Scan type : Progressive
    Bits/(Pixel*Frame) : 0.232
    Stream size : 868 MiB (93%)

    Audio
    ID : 2
    Format : AAC
    Format/Info : Advanced Audio Codec
    Format version : Version 4
    Format profile : LC
    Format settings, SBR : No
    Codec ID : 40
    Duration : 2h 20mn
    Bit rate mode : Variable
    Bit rate : 64.0 Kbps
    Channel(s) : 2 channels
    Channel positions : Front: L R
    Sampling rate : 44.1 KHz
    Stream size : 64.1 MiB (7%)










    Code:
    http://www.duckload.com/dl/evvP2


    Code:
    http://freakshare.com/files/piu3ir7x/No-Problem--2010-900Mb---DVDRip---XViD---AAC.mp4.html


    CREDITS TO Harshk64/Dimplek64



 

 

Posting Permissions

  • You may not post new threads
  • You may not post replies
  • You may not post attachments
  • You may not edit your posts
  •