Results 1 to 1 of 1
  1. #1
    Super Member www.desirulez.net
    Join Date
    Apr 2010
    Posts
    141

    T

    Default No One Killed Jessica (2010) Cam Xvid

    Follow us on Social Media







    Credit to original releasers thanks





    General
    Complete name : No.One.Killed.Jessica.2010
    Format : MPEG-PS
    File size : 487 MiB
    Duration : 2h 6mn
    Overall bit rate : 539 Kbps

    Video
    ID : 224 (0xE0)
    Format : MPEG Video
    Format version : Version 1
    Format settings, BVOP : Yes
    Format settings, Matrix : Default
    Duration : 2h 6mn
    Bit rate mode : Variable
    Bit rate : 400 Kbps
    Width : 352 pixels
    Height : 288 pixels
    Display aspect ratio : 1.086
    Frame rate : 29.970 fps
    Standard : PAL
    Color space : YUV
    Bit depth : 8 bits
    Scan type : Progressive
    Compression mode : Lossy
    Bits/(Pixel*Frame) : 0.132
    Stream size : 362 MiB (74%)

    Audio
    ID : 192 (0xC0)
    Format : MPEG Audio
    Format version : Version 1
    Format profile : Layer 2
    Duration : 2h 6mn
    Bit rate mode : Constant
    Bit rate : 128 Kbps
    Channel(s) : 2 channels
    Sampling rate : 48.0 KHz
    Compression mode : Lossy
    Stream size : 116 MiB (24%)
    Link

    Code:
    http://www.fileserve.com/file/H8uf3AR
    Code:
    http://www.easy-share.com/1913495806/No.One.Killed.Jessica.2010.Cam.Xvid.MPG
    Code:
    http://cramit.in/yaaterfq8dtd
    Code:
    http://www.duckload.com/dl/wPnP2
    Code:
    http://freakshare.com/files/ytbknabe/No-One-Killed-Jessica--2010-500MB---SCAM-Rip---XViD.MPG.html

 

 

Posting Permissions

  • You may not post new threads
  • You may not post replies
  • You may not post attachments
  • You may not edit your posts
  •