Results 1 to 3 of 3
  1. #1
    Tech Team www.desirulez.net
    Join Date
    Dec 2010
    Location
    India
    Posts
    434

    T

    Red face No One Killed Jessica (2010)500MB - SCAM Rip - XViD [Single Link]

    Follow us on Social Media









    No One Killed Jessica (2010)500MB - SCAM Rip - XViD [Single Link]





    General
    Complete name : No.One.Killed.Jessica.2010
    Format : MPEG-PS
    File size : 487 MiB
    Duration : 2h 6mn
    Overall bit rate : 539 Kbps

    Video
    ID : 224 (0xE0)
    Format : MPEG Video
    Format version : Version 1
    Format settings, BVOP : Yes
    Format settings, Matrix : Default
    Duration : 2h 6mn
    Bit rate mode : Variable
    Bit rate : 400 Kbps
    Width : 352 pixels
    Height : 288 pixels
    Display aspect ratio : 1.086
    Frame rate : 29.970 fps
    Standard : PAL
    Color space : YUV
    Bit depth : 8 bits
    Scan type : Progressive
    Compression mode : Lossy
    Bits/(Pixel*Frame) : 0.132
    Stream size : 362 MiB (74%)

    Audio
    ID : 192 (0xC0)
    Format : MPEG Audio
    Format version : Version 1
    Format profile : Layer 2
    Duration : 2h 6mn
    Bit rate mode : Constant
    Bit rate : 128 Kbps
    Channel(s) : 2 channels
    Sampling rate : 48.0 KHz
    Compression mode : Lossy
    Stream size : 116 MiB (24%)






    Code:
    http://www.duckload.com/dl/wPnP2


    Code:
    http://freakshare.com/files/ytbknabe/No-One-Killed-Jessica--2010-500MB---SCAM-Rip---XViD.MPG.html


    CREDITS TO ORIGINAL RELEASER



  2. #2
    dR Backup www.desirulez.mewww.desirulez.net
    Join Date
    Sep 2010
    Location
    Posts
    4,768

    T

    Default

    thanksssssssssssssssss



  3. #3
    dR Backup www.desirulez.mewww.desirulez.net
    Join Date
    Sep 2010
    Location
    Posts
    4,768

    T

    Default

    thankssssssss



 

 

Posting Permissions

  • You may not post new threads
  • You may not post replies
  • You may not post attachments
  • You may not edit your posts
  •