Results 1 to 1 of 1
  1. #1
    Hot Member www.desirulez.net
    Join Date
    Aug 2009
    Posts
    837

    T

    Default Baava (2010) 1Cd DvdRip X264

    Follow us on Social Media







    ..::Baava (2010) 1Cd DvdRip X264::..



    General
    Complete name :Bava.1Cd.DvdRip.X264.By.Kanna10_DM.mp4
    Format : MPEG-4
    Format profile : Base Media
    Codec ID : isom
    File size : 700 MiB
    Duration : 2h 25mn
    Overall bit rate : 674 Kbps
    Encoded date : UTC 2011-01-06 05:29:04
    Tagged date : UTC 2011-01-06 05:29:04

    Video
    ID : 1
    Format : AVC
    Format/Info : Advanced Video Codec
    Format profile : [email protected]
    Format settings, CABAC : Yes
    Format settings, ReFrames : 3 frames
    Format settings, GOP : N=1
    Codec ID : avc1
    Codec ID/Info : Advanced Video Coding
    Duration : 2h 25mn
    Bit rate mode : Variable
    Bit rate : 543 Kbps
    Maximum bit rate : 2 769 Kbps
    Width : 640 pixels
    Height : 272 pixels
    Display aspect ratio : 2.35:1
    Frame rate mode : Constant
    Frame rate : 29.970 fps
    Color space : YUV
    Chroma subsampling : 4:2:0
    Bit depth : 8 bits
    Scan type : Progressive
    Bits/(Pixel*Frame) : 0.104
    Stream size : 563 MiB (80%)
    Title : Baava-1cd
    Encoded date : UTC 2011-01-06 05:29:04
    Tagged date : UTC 2011-01-06 05:30:10

    Audio
    ID : 2
    Format : AAC
    Format/Info : Advanced Audio Codec
    Format version : Version 4
    Format profile : LC
    Format settings, SBR : No
    Codec ID : 40
    Duration : 2h 25mn
    Bit rate mode : Variable
    Bit rate : 128 Kbps
    Maximum bit rate : 136 Kbps
    Channel(s) : 2 channels
    Channel positions : Front: L R
    Sampling rate : 48.0 KHz
    Stream size : 133 MiB (19%)
    Title : Imported with GPAC 0.4.6-DEV (internal rev. 5)
    Encoded date : UTC 2011-01-06 05:29:51
    Tagged date : UTC 2011-01-06 05:30:10










    SINGLE LINK
    Code:
    http://www.fileserve.com/file/fDFShf5/Bava.1Cd.DvdRip.X264.By.Kanna10_DM.mp4
    
    http://www.duckload.com/download/2001889/Bava.1Cd.DvdRip.X264.By.Kanna10_DM.mp4
    
    http://www.filefactory.com/file/b4g6bc1/n/Bava_1Cd_DvdRip_X264_By_Kanna10_DM_mp4
    
    http://cramit.in/93k1zgd53kwk
    DUCKLOAD
    Code:
    http://www.duckload.com/download/2001756/Bava.1Cd.DvdRip.X264.By.Kanna10_DM.mp4.001
    http://www.duckload.com/download/2001748/Bava.1Cd.DvdRip.X264.By.Kanna10_DM.mp4.003
    http://www.duckload.com/download/2001745/Bava.1Cd.DvdRip.X264.By.Kanna10_DM.mp4.002
    http://www.duckload.com/download/2001704/Bava.1Cd.DvdRip.X264.By.Kanna10_DM.mp4.004
    HOTFILE
    Code:
    http://hotfile.com/dl/94998478/83cafea/Bava.1Cd.DvdRip.X264.By.Kanna10_DM.mp4.001.html
    http://hotfile.com/dl/94998904/e57d8ff/Bava.1Cd.DvdRip.X264.By.Kanna10_DM.mp4.002.html
    http://hotfile.com/dl/94999158/dd0a4c1/Bava.1Cd.DvdRip.X264.By.Kanna10_DM.mp4.003.html
    http://hotfile.com/dl/94999341/1694451/Bava.1Cd.DvdRip.X264.By.Kanna10_DM.mp4.004.html

    FILESERVE
    Code:
    http://www.fileserve.com/file/AdwR3jb/Bava.1Cd.DvdRip.X264.By.Kanna10_DM.mp4.001
    http://www.fileserve.com/file/VGarb3C/Bava.1Cd.DvdRip.X264.By.Kanna10_DM.mp4.002
    http://www.fileserve.com/file/5Xm93cm/Bava.1Cd.DvdRip.X264.By.Kanna10_DM.mp4.003
    http://www.fileserve.com/file/pxGfyMP/Bava.1Cd.DvdRip.X264.By.Kanna10_DM.mp4.004
    FILEFACTORY
    Code:
    http://www.filefactory.com/file/b4g6b9f/n/Bava_1Cd_DvdRip_X264_By_Kanna10_DM_mp4_001
    http://www.filefactory.com/file/b4g6b30/n/Bava_1Cd_DvdRip_X264_By_Kanna10_DM_mp4_002
    http://www.filefactory.com/file/b4g6b3b/n/Bava_1Cd_DvdRip_X264_By_Kanna10_DM_mp4_003
    http://www.filefactory.com/file/b4g6b3h/n/Bava_1Cd_DvdRip_X264_By_Kanna10_DM_mp4_004
    FILESONIC
    Code:
    http://www.filesonic.com/file/53682995/Bava.1Cd.DvdRip.X264.By.Kanna10_DM.mp4.001
    http://www.filesonic.com/file/53682413/Bava.1Cd.DvdRip.X264.By.Kanna10_DM.mp4.002
    http://www.filesonic.com/file/53683021/Bava.1Cd.DvdRip.X264.By.Kanna10_DM.mp4.003
    http://www.filesonic.com/file/53681463/Bava.1Cd.DvdRip.X264.By.Kanna10_DM.mp4.004

 

 

Posting Permissions

  • You may not post new threads
  • You may not post replies
  • You may not post attachments
  • You may not edit your posts
  •