Results 1 to 1 of 1
  1. #1
    Tech Team www.desirulez.net
    Join Date
    Dec 2010
    Location
    India
    Posts
    434

    T

    Wink Siddhu (+2 First Attempt)(2010)1CD - DVDRip - LOtus - XViD [Single Link]

    Follow us on Social Media









    Siddhu (+2 First Attempt)(2010)1CD - DVDRip - LOtus - XViD[Single Link]





    Banner: KBR Medias Pvt. Ltd
    Cast: Santhanu, Chandni, Rajesh, Seetha, Avinash & Ganja Karuppu
    Direction: K. Bhagyaraj
    Production: KBR Medias Pvt. Ltd
    Music: Dharan, Babu Shankar & Thaman .S
    Lyricis: Na.Muthukumar, Babu Shankar & Amudhamani
    General
    Complete name : Siddhu (+2 First Attempt)
    Format : AVI
    Format/Info : Audio Video Interleave
    File size : 700 MiB
    Duration : 2h 23mn
    Overall bit rate : 682 Kbps
    Writing application : VirtualDubMod 1.5.4.1 (build 2178/release)
    Writing library : VirtualDubMod build 2178/release

    Video
    ID : 0
    Format : MPEG-4 Visual
    Format profile : Advanced [email protected]
    Format settings, BVOP : Yes
    Format settings, QPel : No
    Format settings, GMC : No warppoints
    Format settings, Matrix : Custom
    Codec ID : XVID
    Codec ID/Hint : XviD
    Duration : 2h 23mn
    Bit rate : 578 Kbps
    Width : 624 pixels
    Height : 272 pixels
    Display aspect ratio : 2.25:1
    Frame rate : 29.970 fps
    Color space : YUV
    Chroma subsampling : 4:2:0
    Bit depth : 8 bits
    Scan type : Progressive
    Bits/(Pixel*Frame) : 0.114
    Stream size : 592 MiB (85%)
    Writing library : XviD 1.2.0.dev47 (UTC 2006-11-01)

    Audio
    ID : 1
    Format : MPEG Audio
    Format version : Version 1
    Format profile : Layer 3
    Mode : Joint stereo
    Mode extension : MS Stereo
    Codec ID : 55
    Codec ID/Hint : MP3
    Duration : 2h 23mn
    Bit rate mode : Constant
    Bit rate : 96.0 Kbps
    Channel(s) : 2 channels
    Sampling rate : 32.0 KHz
    Stream size : 98.5 MiB (14%)
    Alignment : Aligned on interleaves
    Interleave, duration : 67 ms (2.00 video frames)
    Interleave, preload duration : 504 ms
    Writing library : LAME3.97
    Encoding settings : -m j -V 4 -q 2










    Code:
    http://www.duckload.com/dl/0C7P2

 

 

Posting Permissions

  • You may not post new threads
  • You may not post replies
  • You may not post attachments
  • You may not edit your posts
  •