Results 1 to 2 of 2
  1. #1
    Tech Team www.desirulez.net
    Join Date
    Dec 2010
    Location
    India
    Posts
    434

    T

    Red face WWE The Vintage Collection (2011)2nd Jan - PDTV - x264 [Single Link]

    Follow us on Social Media









    WWE The Vintage Collection (2011)2nd Jan - PDTV - x264 [Single Link]





    General
    Complete name : WWE The Vintage Collection (2011)2nd Jan - PDTV - x264.avi
    Format : AVI
    Format/Info : Audio Video Interleave
    File size : 391 MiB
    Duration : 42mn 6s
    Overall bit rate : 1 297 Kbps
    Writing application : Lavf51.12.1

    Video
    ID : 0
    Format : AVC
    Format/Info : Advanced Video Codec
    Format profile : [email protected]
    Format settings, CABAC : No
    Format settings, ReFrames : 1 frame
    Codec ID : H264
    Duration : 42mn 6s
    Bit rate : 1 156 Kbps
    Width : 624 pixels
    Height : 352 pixels
    Display aspect ratio : 16:9
    Frame rate : 25.000 fps
    Color space : YUV
    Chroma subsampling : 4:2:0
    Bit depth : 8 bits
    Scan type : Progressive
    Bits/(Pixel*Frame) : 0.211
    Stream size : 348 MiB (89%)

    Audio
    ID : 1
    Format : MPEG Audio
    Format version : Version 1
    Format profile : Layer 3
    Mode : Joint stereo
    Mode extension : MS Stereo
    Codec ID : 55
    Codec ID/Hint : MP3
    Duration : 42mn 6s
    Bit rate mode : Constant
    Bit rate : 128 Kbps
    Channel(s) : 2 channels
    Sampling rate : 44.1 KHz
    Stream size : 38.5 MiB (10%)
    Alignment : Aligned on interleaves
    Interleave, duration : 26 ms (0.65 video frame)










    Code:
    http://www.duckload.com/dl/Gg7P2

  2. #2
    Senior Member www.desirulez.net
    Join Date
    May 2011
    Location
    Türkiye (Turkey)
    Posts
    110

    T

    Default

    Thanks (Teşekkürler).

 

 

Posting Permissions

  • You may not post new threads
  • You may not post replies
  • You may not post attachments
  • You may not edit your posts
  •