Results 1 to 1 of 1
  1. #1
    Banned www.desirulez.net
    Join Date
    Nov 2010
    Posts
    0

    T

    Default Phir Teri Kahani Yaad Aayee 1993 1CD DVDRiP XviD

    Follow us on Social Media







    Phir Teri Kahani Yaad Aayee 1993 1CD DVDRiP XviD




    Code:
    Format                           : AVI
    Format/Info                      : Audio Video Interleave
    File size                        : 700 MiB
    Duration                         : 1h 43mn
    Overall bit rate                 : 950 Kbps
    Writing application              : VirtualDubMod 1.5.4.1 (build 2178/release)
    Writing library                  : VirtualDubMod build 2178/release
    
    Video
    Format                           : MPEG-4 Visual
    Format profile                   : Streaming [email protected]
    Format settings, BVOP            : Yes
    Format settings, QPel            : No
    Format settings, GMC             : No warppoints
    Format settings, Matrix          : Custom
    Codec ID                         : XVID
    Codec ID/Hint                    : XviD
    Duration                         : 1h 43mn
    Bit rate                         : 847 Kbps
    Width                            : 512 pixels
    Height                           : 384 pixels
    Display aspect ratio             : 4/3
    Frame rate                       : 23.976 fps
    Resolution                       : 24 bits
    Colorimetry                      : 4:2:0
    Scan type                        : Progressive
    Bits/(Pixel*Frame)               : 0.180
    Stream size                      : 624 MiB (89%)
    Writing library                  : XviD 1.1.0 (UTC 2005-11-22)
    
    Audio
    Format                           : MPEG Audio
    Format version                   : Version 1
    Format profile                   : Layer 3
    Codec ID                         : 55
    Codec ID/Hint                    : MP3
    Duration                         : 1h 43mn
    Bit rate mode                    : Constant
    Bit rate                         : 96.0 Kbps
    Channel(s)                       : 2 channels
    Sampling rate                    : 32.0 KHz
    Resolution                       : 16 bits
    Stream size                      : 70.8 MiB (10%)
    Alignment                        : Aligned on interleaves
    Interleave, duration             : 83 ms (2.00 video frames)
    Interleave, preload duration     : 504 ms







    Code:
    http://www.fileserve.com/file/NXK4tjK/Phir.Teri.Kahani.Yaad_Aayee.1993.1CD.DVDRiP.By.IndianHacker.avi.001
    http://www.fileserve.com/file/8evYXQR/Phir.Teri.Kahani.Yaad_Aayee.1993.1CD.DVDRiP.By.IndianHacker.avi.002
    http://www.fileserve.com/file/BXV2gDx/Phir.Teri.Kahani.Yaad_Aayee.1993.1CD.DVDRiP.By.IndianHacker.avi.003
    http://www.fileserve.com/file/pUMFXA2/Phir.Teri.Kahani.Yaad_Aayee.1993.1CD.DVDRiP.By.IndianHacker.avi.004
    http://www.fileserve.com/file/STHUDUC/Phir.Teri.Kahani.Yaad_Aayee.1993.1CD.DVDRiP.By.IndianHacker.avi.005
    http://www.fileserve.com/file/286nWgJ/Phir.Teri.Kahani.Yaad_Aayee.1993.1CD.DVDRiP.By.IndianHacker.avi.006
    http://www.fileserve.com/file/NE3qb5U/Phir.Teri.Kahani.Yaad_Aayee.1993.1CD.DVDRiP.By.IndianHacker.avi.007
    http://www.fileserve.com/file/twf9tmM/Phir.Teri.Kahani.Yaad_Aayee.1993.1CD.DVDRiP.By.IndianHacker.avi.008

 

 

Posting Permissions

  • You may not post new threads
  • You may not post replies
  • You may not post attachments
  • You may not edit your posts
  •