Results 1 to 1 of 1
  1. #1
    dR Dazzler www.desirulez.net
    Join Date
    Mar 2009
    Posts
    1,518

    T

    Default Inside MMA-Bazzie Awards-XviD 2010 Dec 31-Rocky

    Follow us on Social Media









    Inside MMA-Bazzie Awards-XviD 2010 Dec 31-Rocky

    Code:
    	Complete name                    :INSIDE MMA-Bazzie Awards-XviD 2010 Dec 31-Rocky
    Format                           : AVI
    Format/Info                      : Audio Video Interleave
    File size                        : 637 MiB
    Duration                         : 52mn 53s
    Overall bit rate                 : 1 685 Kbps
    
    Video
    ID                               : 0
    Format                           : MPEG-4 Visual
    Format profile                   : Advanced [email protected]
    Format settings, BVOP            : Yes
    Format settings, QPel            : No
    Format settings, GMC             : No warppoints
    Format settings, Matrix          : Default (H.263)
    Muxing mode                      : Packed bitstream
    Codec ID                         : XVID
    Codec ID/Hint                    : XviD
    Duration                         : 52mn 53s
    Bit rate                         : 1 545 Kbps
    Width                            : 720 pixels
    Height                           : 364 pixels
    Display aspect ratio             : 1.978
    Frame rate                       : 29.970 fps
    Color space                      : YUV
    Chroma subsampling               : 4:2:0
    Bit depth                        : 8 bits
    Scan type                        : Progressive
    Compression mode                 : Lossy
    Bits/(Pixel*Frame)               : 0.197
    Stream size                      : 585 MiB (92%)
    Writing library                  : XviD 1.1.0 (UTC 2005-11-22)
    
    Audio
    ID                               : 1
    Format                           : MPEG Audio
    Format version                   : Version 1
    Format profile                   : Layer 3
    Codec ID                         : 55
    Codec ID/Hint                    : MP3
    Duration                         : 52mn 53s
    Bit rate mode                    : Constant
    Bit rate                         : 128 Kbps
    Channel(s)                       : 2 channels
    Sampling rate                    : 48.0 KHz
    Compression mode                 : Lossy
    Delay relative to video          : 24ms
    Stream size                      : 48.4 MiB (8%)
    Alignment                        : Split accross interleaves
    Interleave, duration             : 33 ms (1.00 video frame)
    Interleave, preload duration     : 45 ms
    Title                            : Audio Stream


    Code:
    http://www.fileserve.com/file/DAd3Zgh/Inside_MMA-Bazzie_Awards-XviD_2010_Dec_31-Rocky.avi.rar
    Code:
    http://bitshare.com/files/uunrrz0w/Inside_MMA-Bazzie_Awards-XviD_2010_Dec_31-Rocky.avi.rar.html
    Code:
    http://hotfile.com/dl/93404488/c798337/Inside_MMA-Bazzie_Awards-XviD_2010_Dec_31-Rocky.avi.rar.html
    Code:
    http://www.filesonic.com/file/50564798/INSIDE_MMA-Bazzie_Awards-XviD_2010_Dec_31-Rocky.avi.part2.rar
    http://www.filesonic.com/file/50564934/INSIDE_MMA-Bazzie_Awards-XviD_2010_Dec_31-Rocky.avi.part1.rar

 

 

Posting Permissions

  • You may not post new threads
  • You may not post replies
  • You may not post attachments
  • You may not edit your posts
  •