Results 1 to 1 of 1
  1. #1
    Tech Team www.desirulez.net
    Join Date
    Dec 2010
    Location
    India
    Posts
    434

    T

    Smile Aakrosh (2010)1CD - DVDRIP - XVID [Single Link]

    Follow us on Social Media








    Aakrosh (2010)1CD - DVDRIP - XVID [Single Link]





    General
    Complete name : Aakrosh (2010) 1CD - DVDRIP - XVID.m4v
    Format : MPEG-4
    Format profile : Base Media / Version 2
    Codec ID : mp42
    File size : 795 MiB
    Duration : 2h 25mn
    Overall bit rate : 763 Kbps
    Encoded date : UTC 2010-12-29 17:24:19
    Tagged date : UTC 2010-12-29 19:46:31
    Writing application : HandBrake 0.9.4 2009112300

    Video
    ID : 1
    Format : AVC
    Format/Info : Advanced Video Codec
    Format profile : [email protected]
    Format settings, CABAC : Yes
    Format settings, ReFrames : 2 frames
    Codec ID : avc1
    Codec ID/Info : Advanced Video Coding
    Duration : 2h 25mn
    Bit rate mode : Variable
    Bit rate : 604 Kbps
    Width : 710 pixels
    Height : 368 pixels
    Display aspect ratio : 2.25:1
    Frame rate mode : Variable
    Frame rate : 29.970 fps
    Minimum frame rate : 14.985 fps
    Maximum frame rate : 35.033 fps
    Color space : YUV
    Chroma subsampling : 4:2:0
    Bit depth : 8 bits
    Scan type : Progressive
    Bits/(Pixel*Frame) : 0.077
    Stream size : 624 MiB (78%)
    Writing library : x264 core 79
    Encoding settings : cabac=1 / ref=2 / deblock=1:0:0 / analyse=0x1:0x111 / me=hex / subme=6 / psy=1 / psy_rd=1.0:0.0 / mixed_ref=0 / me_range=16 / chroma_me=1 / trellis=0 / 8x8dct=0 / cqm=0 / deadzone=21,11 / chroma_qp_offset=-2 / threads=1 / nr=0 / decimate=1 / mbaff=0 / constrained_intra=0 / bframes=2 / b_pyramid=0 / b_adapt=1 / b_bias=0 / direct=1 / wpredb=0 / wpredp=2 / keyint=300 / keyint_min=30 / scenecut=40 / rc_lookahead=40 / rc=abr / mbtree=1 / bitrate=604 / ratetol=1.0 / qcomp=0.60 / qpmin=10 / qpmax=51 / qpstep=4 / ip_ratio=1.40 / aq=1:1.00
    Encoded date : UTC 2010-12-29 17:24:19
    Tagged date : UTC 2010-12-29 19:46:31
    Color primaries : BT.601-6 525, BT.1358 525, BT.1700 NTSC, SMPTE 170M
    Transfer characteristics : BT.709-5, BT.1361
    Matrix coefficients : BT.601-6 525, BT.1358 525, BT.1700 NTSC, SMPTE 170M

    Audio
    ID : 2
    Format : AAC
    Format/Info : Advanced Audio Codec
    Format version : Version 4
    Format profile : LC
    Codec ID : 40
    Duration : 2h 25mn
    Bit rate mode : Variable
    Bit rate : 160 Kbps
    Maximum bit rate : 257 Kbps
    Channel(s) : 2 channels
    Channel positions : Front: L R
    Sampling rate : 48.0 KHz
    Compression mode : Lossy
    Stream size : 166 MiB (21%)
    Language : Hindi
    Encoded date : UTC 2010-12-29 17:24:19
    Tagged date : UTC 2010-12-29 19:46:31

    Text #1
    ID : 3
    Format : Timed text
    Muxing mode : sbtl
    Codec ID : tx3g
    Duration : 1h 38mn
    Bit rate mode : Variable
    Bit rate : 0
    Stream size : 52.0 Bytes (0%)
    Language : English
    Encoded date : UTC 2010-12-29 17:24:19
    Tagged date : UTC 2010-12-29 18:53:30

    Text #2
    ID : 4
    Format : Apple text
    Codec ID : text
    Duration : 2h 25mn
    Bit rate mode : Variable
    Bit rate : 0
    Stream size : 423 Bytes (0%)
    Encoded date : UTC 2010-12-29 17:24:19
    Tagged date : UTC 2010-12-29 19:46:31








    Code:
    http://www.duckload.com/dl/MrEO2

 

 

Posting Permissions

  • You may not post new threads
  • You may not post replies
  • You may not post attachments
  • You may not edit your posts
  •