Results 1 to 1 of 1
  1. #1
    Tech Team www.desirulez.net
    Join Date
    Dec 2010
    Location
    India
    Posts
    434

    T

    Cool Hisss (2010) 900MB - DVDRIP - X264 - AAC [Single Link]

    Follow us on Social Media








    Hisss (2010) 900MB - DVDRIP - X264 - AAC [Single Link]




    General
    Complete name : Hisssssss.m4v
    Format : MPEG-4
    Format profile : Base Media / Version 2
    Codec ID : mp42
    File size : 922 MiB
    Duration : 1h 33mn
    Overall bit rate : 1 381 Kbps
    Encoded date : UTC 2010-12-27 12:54:24
    Tagged date : UTC 2010-12-27 17:00:31
    Writing application : HandBrake 0.9.4 2009112300

    Video
    ID : 1
    Format : AVC
    Format/Info : Advanced Video Codec
    Format profile : [email protected]
    Format settings, CABAC : Yes
    Format settings, ReFrames : 3 frames
    Codec ID : avc1
    Codec ID/Info : Advanced Video Coding
    Duration : 1h 33mn
    Bit rate mode : Variable
    Bit rate : 1 217 Kbps
    Width : 672 pixels
    Height : 288 pixels
    Display aspect ratio : 2.35:1
    Frame rate mode : Variable
    Frame rate : 24.961 fps
    Original frame rate : 25.000 fps
    Minimum frame rate : 14.286 fps
    Maximum frame rate : 25.000 fps
    Color space : YUV
    Chroma subsampling : 4:2:0
    Bit depth : 8 bits
    Scan type : Progressive
    Bits/(Pixel*Frame) : 0.252
    Stream size : 812 MiB (88%)
    Writing library : x264 core 79
    Encoding settings : cabac=1 / ref=3 / deblock=1:0:0 / analyse=0x3:0x113 / me=hex / subme=7 / psy=1 / psy_rd=1.0:0.0 / mixed_ref=1 / me_range=16 / chroma_me=1 / trellis=1 / 8x8dct=1 / cqm=0 / deadzone=21,11 / chroma_qp_offset=-2 / threads=1 / nr=0 / decimate=1 / mbaff=0 / constrained_intra=0 / bframes=3 / b_pyramid=0 / b_adapt=2 / b_bias=0 / direct=1 / wpredb=1 / wpredp=2 / keyint=250 / keyint_min=25 / scenecut=40 / rc_lookahead=50 / rc=crf / mbtree=1 / crf=20.0 / qcomp=0.60 / qpmin=10 / qpmax=51 / qpstep=4 / ip_ratio=1.40 / aq=1:1.00
    Encoded date : UTC 2010-12-27 12:54:24
    Tagged date : UTC 2010-12-27 17:00:31
    Color primaries : BT.601-6 525, BT.1358 525, BT.1700 NTSC, SMPTE 170M
    Transfer characteristics : BT.709-5, BT.1361
    Matrix coefficients : BT.601-6 525, BT.1358 525, BT.1700 NTSC, SMPTE 170M

    Audio
    ID : 2
    Format : AAC
    Format/Info : Advanced Audio Codec
    Format version : Version 4
    Format profile : LC
    Codec ID : 40
    Duration : 1h 33mn
    Bit rate mode : Variable
    Bit rate : 160 Kbps
    Maximum bit rate : 234 Kbps
    Channel(s) : 2 channels
    Channel positions : Front: L R
    Sampling rate : 48.0 KHz
    Compression mode : Lossy
    Stream size : 107 MiB (12%)
    Encoded date : UTC 2010-12-27 12:54:24
    Tagged date : UTC 2010-12-27 17:00:31

    Text
    ID : 3
    Format : Timed text
    Muxing mode : sbtl
    Codec ID : tx3g
    Duration : 1h 22mn
    Bit rate mode : Variable
    Bit rate : 0
    Stream size : 34.0 Bytes (0%)
    Language : English
    Encoded date : UTC 2010-12-27 12:54:24
    Tagged date : UTC 2010-12-27 15:04:53









    Code:
    http://www.duckload.com/dl/W7EO2

 

 

Posting Permissions

  • You may not post new threads
  • You may not post replies
  • You may not post attachments
  • You may not edit your posts
  •