Results 1 to 1 of 1
  1. #1
    Hot Member www.desirulez.net
    Join Date
    Sep 2009
    Posts
    1,215

    T

    Thumbs up Tees Maar Khan 2010 x264 1CD *New Source* SCR RIP

    Follow us on Social Media
























    General
    UniqueID : 239446157978104893918037627232752541843 (0xB423A70EF2E5D73BB5912E759ED0A093)
    Complete name : F:\TMK -2010 - New Source Screener Untouched Data - Team IcTv Exclusive\Part - 1\Tees.Maar.Khan.2010.x264..1CD.NS.SCR-Rip.SS.TEAM.TDBB.mkv
    Format : Matroska
    File size : 695 MiB
    Duration : 2h 2mn
    Overall bit rate : 794 Kbps
    Encoded date : UTC 2010-12-28 17:47:20
    Writing application : mkvmerge v4.2.0 ('No Talking') built on Jul 28 2010 18:38:23
    Writing library : libebml v1.0.0 + libmatroska v1.0.0

    Video
    ID : 1
    Format : AVC
    Format/Info : Advanced Video Codec
    Format profile : [email protected]
    Format settings, CABAC : Yes
    Format settings, ReFrames : 4 frames
    Muxing mode : Header stripping
    Codec ID : V_MPEG4/ISO/AVC
    Duration : 2h 2mn
    Bit rate : 682 Kbps
    Width : 640 pixels
    Height : 272 pixels
    Display aspect ratio : 2.35:1
    Frame rate : 23.976 fps
    Color space : YUV
    Chroma subsampling : 4:2:0
    Bit depth : 8 bits
    Scan type : Progressive
    Bits/(Pixel*Frame) : 0.163
    Stream size : 597 MiB (86%)
    Language : English

    Audio
    ID : 2
    Format : MPEG Audio
    Format version : Version 1
    Format profile : Layer 3
    Mode : Joint stereo
    Mode extension : MS Stereo
    Muxing mode : Header stripping
    Codec ID : A_MPEG/L3
    Codec ID/Hint : MP3
    Bit rate mode : Constant
    Bit rate : 96.0 Kbps
    Channel(s) : 2 channels
    Sampling rate : 32.0 KHz
    Compression mode : Lossy
    Stream size : 41.1 MiB (6%)
    Writing library : LAME3.98r
    Encoding settings : -m j -V 4 -q 2 -lowpass 15.1 -b 96
    Code:
    http://www.fileserve.com/file/D3dsdS7

 

 

Posting Permissions

  • You may not post new threads
  • You may not post replies
  • You may not post attachments
  • You may not edit your posts
  •