Results 1 to 1 of 1
  1. #1
    Banned www.desirulez.net
    Join Date
    Jan 2010
    Posts
    2,522

    Default The A-.Team (2010) 720p BRrip.(Dual Audio) Hindi-Eng

    Follow us on Social Media





    The A-.Team (2010) 720p BRrip.(Dual Audio) Hindi-Eng







    RIP INFO

    General

    Complete name : The A-Team 720p BRrip (Dual Audio)Hindi-Eng-=[CHAMP_IS_HER]=-.mkv
    Format : Matroska
    File size : 1.23 GiB
    Duration : 2h 13mn
    Overall bit rate : 1 318 Kbps
    Encoded date : UTC 2010-10-31 03:29:18
    Writing application : mkvmerge v4.2.0 ('No Talking') built on Jul 28 2010 18:38:23
    Writing library : libebml v1.0.0 + libmatroska v1.0.0

    Video
    ID : 1
    Format : AVC
    Format/Info : Advanced Video Codec
    Format profile : [email protected]
    Format settings, CABAC : Yes
    Format settings, ReFrames : 8 frames
    Muxing mode : Container [email protected]
    Codec ID : V_MPEG4/ISO/AVC
    Duration : 2h 13mn
    Bit rate : 715 Kbps
    Nominal bit rate : 758 Kbps
    Width : 1 280 pixels
    Height : 544 pixels
    Display aspect ratio : 2.35
    Frame rate : 23.976 fps
    Resolution : 24 bits
    Stream size : 683 MiB (54%)
    Writing library : x264 core 92 r1510 33d382a

    Audio #1
    ID : 2
    Format : AC-3
    Format/Info : Audio Coding 3
    Codec ID : A_AC3
    Duration : 2h 13mn
    Bit rate mode : Constant
    Bit rate : 128 Kbps
    Channel(s) : 6 channels
    Channel positions : Front: L C R, Surround: L R, LFE
    Sampling rate : 48.0 KHz
    Stream size : 122 MiB (10%)
    Title : English

    Audio #2
    ID : 3
    Format : AC-3
    Format/Info : Audio Coding 3
    Codec ID : A_AC3
    Duration : 2h 13mn
    Bit rate mode : Constant
    Bit rate : 448 Kbps
    Channel(s) : 2 channels
    Channel positions : L R
    Sampling rate : 48.0 KHz
    Video delay : 2s 0ms
    Stream size : 428 MiB (34%)
    Title : Hindi
    Language : Hindi













    Code:
    http://hotfile.com/dl/91942108/cf10579/The_A-Team_720p_BRrip_Dual_Audio-Hindi-Eng.By.Deejam.part1.rar.html
    http://hotfile.com/dl/91941969/e7a668e/The_A-Team_720p_BRrip_Dual_Audio-Hindi-Eng.By.Deejam.part2.rar.html
    http://hotfile.com/dl/91942082/22d381e/The_A-Team_720p_BRrip_Dual_Audio-Hindi-Eng.By.Deejam.part3.rar.html
    http://hotfile.com/dl/91941518/05e5618/The_A-Team_720p_BRrip_Dual_Audio-Hindi-Eng.By.Deejam.part4.rar.html
    
    or
    
    
    http://www.fileserve.com/file/7qp24ZF/The_A-Team_720p_BRrip_Dual_Audio-Hindi-Eng.By.Deejam.part1.rar
    http://www.fileserve.com/file/VG2CqUb/The_A-Team_720p_BRrip_Dual_Audio-Hindi-Eng.By.Deejam.part2.rar
    http://www.fileserve.com/file/QmX2kX3/The_A-Team_720p_BRrip_Dual_Audio-Hindi-Eng.By.Deejam.part3.rar
    http://www.fileserve.com/file/dBqfEkD/The_A-Team_720p_BRrip_Dual_Audio-Hindi-Eng.By.Deejam.part4.rar

 

 

Posting Permissions

  • You may not post new threads
  • You may not post replies
  • You may not post attachments
  • You may not edit your posts
  •