Results 1 to 1 of 1
  1. #1

    Thumbs up Action Replayy 2010 1080p x264 DvdRip Untouched AC3 [TDT]

    Follow us on Social Media







    Code:
    General
    Complete name                    : Action Replayy (2010) - 1080p - x264 - DvdRip - Untouched AC3
    IMDB                             : http://www.imdb.com/title/tt1396208/[/URL]
    Format                           : Matroska
    File size                        : 2.50 GiB
    Duration                         : 2h 9mn
    Overall bit rate                 : 2 761 Kbps
    Encoded date                     : UTC 2010-12-12 04:04:35
    Writing application              : mkvmerge v4.0.0 ('The Stars were mine') built on Jun  6 2010 16:18:42
    Writing library                  : libebml v1.0.0 + libmatroska v1.0.0
    Source                           : Dvd9  @ DDR ... thanks
    Ripper                           : KINGFISHER.
    Code:
    Video
    ID                               : 1
    Format                           : AVC
    Format/Info                      : Advanced Video Codec
    Format profile                   : [email protected]
    Format settings, CABAC           : Yes
    Format settings, ReFrames        : 4 frames
    Codec ID                         : V_MPEG4/ISO/AVC
    Duration                         : 2h 9mn
    Bit rate                         : 1 863 Kbps
    Width                            : 1 920 pixels
    Height                           : 800 pixels
    Display aspect ratio             : 2.40:1
    Frame rate                       : 23.976 fps
    Color space                      : YUV
    Chroma subsampling               : 4:2:0
    Bit depth                        : 8 bits
    Scan type                        : Progressive
    Bits/(Pixel*Frame)               : 0.051
    Stream size                      : 1.64 GiB (66%)
    Writing library                  : x264 core 98 r1649 c54c47d
    Language                         : English
    
    Audio #1
    ID                               : 2
    Format                           : AC-3
    Format/Info                      : Audio Coding 3
    Mode extension                   : CM (complete main)
    Codec ID                         : A_AC3
    Duration                         : 2h 9mn
    Bit rate mode                    : Constant
    Bit rate                         : 448 Kbps
    Channel(s)                       : 6 channels
    Channel positions                : Front: L C R, Side: L R, LFE
    Sampling rate                    : 48.0 KHz
    Bit depth                        : 16 bits
    Stream size                      : 416 MiB (16%)
    
    Audio #2
    ID                               : 3
    Format                           : AC-3
    Format/Info                      : Audio Coding 3
    Mode extension                   : CM (complete main)
    Codec ID                         : A_AC3
    Duration                         : 2h 9mn
    Bit rate mode                    : Constant
    Bit rate                         : 448 Kbps
    Channel(s)                       : 2 channels
    Channel positions                : Front: L R
    Sampling rate                    : 48.0 KHz
    Bit depth                        : 16 bits
    Stream size                      : 416 MiB (16%)


















    Hotfile:
    Code:
    http://hotfile.com/dl/91105366/af42382/Action.Replayy.2010.1080p.x264.DvdRip.Untouched.AC3.TDT.by.heavenly95.part1.rar.html
    http://hotfile.com/dl/91105054/9b815c1/Action.Replayy.2010.1080p.x264.DvdRip.Untouched.AC3.TDT.by.heavenly95.part2.rar.html
    http://hotfile.com/dl/91105015/5b71a76/Action.Replayy.2010.1080p.x264.DvdRip.Untouched.AC3.TDT.by.heavenly95.part3.rar.html
    http://hotfile.com/dl/91105204/f594cc7/Action.Replayy.2010.1080p.x264.DvdRip.Untouched.AC3.TDT.by.heavenly95.part4.rar.html
    http://hotfile.com/dl/91105209/2eeecbc/Action.Replayy.2010.1080p.x264.DvdRip.Untouched.AC3.TDT.by.heavenly95.part5.rar.html
    http://hotfile.com/dl/91105237/a07da00/Action.Replayy.2010.1080p.x264.DvdRip.Untouched.AC3.TDT.by.heavenly95.part6.rar.html
    http://hotfile.com/dl/91104805/3af88a9/Action.Replayy.2010.1080p.x264.DvdRip.Untouched.AC3.TDT.by.heavenly95.part7.rar.html
    Fileserve:
    Code:
    http://www.fileserve.com/file/zxNuMzA/Action.Replayy.2010.1080p.x264.DvdRip.Untouched.AC3.TDT.by.heavenly95.part1.rar
    http://www.fileserve.com/file/t869N3r/Action.Replayy.2010.1080p.x264.DvdRip.Untouched.AC3.TDT.by.heavenly95.part2.rar
    http://www.fileserve.com/file/uB3Mpgm/Action.Replayy.2010.1080p.x264.DvdRip.Untouched.AC3.TDT.by.heavenly95.part3.rar
    http://www.fileserve.com/file/pTE7kua/Action.Replayy.2010.1080p.x264.DvdRip.Untouched.AC3.TDT.by.heavenly95.part4.rar
    http://www.fileserve.com/file/NgayRaJ/Action.Replayy.2010.1080p.x264.DvdRip.Untouched.AC3.TDT.by.heavenly95.part5.rar
    http://www.fileserve.com/file/MgVwRgZ/Action.Replayy.2010.1080p.x264.DvdRip.Untouched.AC3.TDT.by.heavenly95.part6.rar
    http://www.fileserve.com/file/bsT8JAf/Action.Replayy.2010.1080p.x264.DvdRip.Untouched.AC3.TDT.by.heavenly95.part7.rar
    Man is still the most extraordinary computer of all.




 

 

Posting Permissions

  • You may not post new threads
  • You may not post replies
  • You may not post attachments
  • You may not edit your posts
  •