Results 1 to 1 of 1
  1. #1
    Retired Staff www.desirulez.net
    Join Date
    Nov 2008
    Posts
    589

    T

    Wink Dashavatar (2008) 1CD Original DVDRIP | XVID | SUBS

    Follow us on Social Media









    THANKS: JAYRAJ

    Format : AVI
    Format/Info : Audio Video Interleave
    Format profile : OpenDML
    File size : 699 MiB
    Duration : 1h 59mn
    Overal bit rate : 821 Kbps
    Writing application : AVI-Mux GUI 1.17.7, Aug 8 2006 20:59:17

    Video
    Format : MPEG-4 Visual
    Format profile : Streaming [email protected]
    Format settings, BVOP : Yes
    Format settings, QPel : No
    Format settings, GMC : No warppoints
    Format settings, Matrix : Default
    Codec ID : XVID
    Codec ID/Hint : XviD
    Duration : 1h 59mn
    Bit rate : 690 Kbps
    Width : 640 pixels
    Height : 272 pixels
    Display aspect ratio : 2.35
    Frame rate : 19.181 fps
    Resolution : 8 bits
    Colorimetry : 4:2:0
    Scan type : Progressive
    Bits/(Pixel*Frame) : 0.207
    Stream size : 588 MiB (84%)
    Writing library : XviD 1.2.0.dev47 (UTC 2006-11-01)

    Audio
    Format : MPEG Audio
    Format version : Version 1
    Format profile : Layer 3
    Codec ID : 55
    Codec ID/Hint : MP3
    Bit rate mode : Constant
    Bit rate : 128 Kbps
    Minimum bit rate : 128 Kbps
    Channel(s) : 2 channels
    Sampling rate : 48.0 KHz
    Resolution : 16 bits
    Stream size : 109 MiB (16%)
    Title : VTS_02_1 T01 3_2ch 448Kbps DELAY 0ms
    Writing library : LAME3.98a
    Encoding settings : CBR










    Code:
    http://rapidshare.com/files/133992293/Dashavatar_2008_1CD_DVDRIP_subs_xvid_By_JAYKINGRAJ.avi.001
    http://rapidshare.com/files/133992505/Dashavatar_2008_1CD_DVDRIP_subs_xvid_By_JAYKINGRAJ.avi.002
    http://rapidshare.com/files/133992534/Dashavatar_2008_1CD_DVDRIP_subs_xvid_By_JAYKINGRAJ.avi.003
    http://rapidshare.com/files/133991561/Dashavatar_2008_1CD_DVDRIP_subs_xvid_By_JAYKINGRAJ.avi.004
    
    Subs:
    
    http://rapidshare.com/files/133993623/Dashavatar_2008_1CD_DVDRIP_subs_xvid_By_JAYKINGRAJ.srt

 

 

Posting Permissions

  • You may not post new threads
  • You may not post replies
  • You may not post attachments
  • You may not edit your posts
  •