Results 1 to 1 of 1
  1. #1
    Tech Team www.desirulez.net
    Join Date
    Dec 2010
    Location
    India
    Posts
    434

    T

    Default Siddhu +2 First Attempt (2010)1CD - PDVDRip - XViD [Single LInk]

    Follow us on Social Media









    Banner: KBR Medias Pvt. Ltd
    Cast: Santhanu, Chandni, Rajesh, Seetha, Avinash & Ganja Karuppu
    Direction: K. Bhagyaraj
    Production: KBR Medias Pvt. Ltd
    Music: Dharan, Babu Shankar & Thaman .S
    Lyricis: Na.Muthukumar, Babu Shankar & Amudhamani

    General
    Complete name : Siddhu (+2 First Attempt) (2010)1CD - HQ - PDVD Rip.avi
    Format : AVI
    Format/Info : Audio Video Interleave
    File size : 700 MiB
    Duration : 2h 26mn
    Overall bit rate : 670 Kbps
    Writing application : VirtualDubMod 1.5.4.1 (build 2178/release)
    Writing library : VirtualDubMod build 2178/release

    Video
    ID : 0
    Format : MPEG-4 Visual
    Format profile : Advanced [email protected]
    Format settings, BVOP : Yes
    Format settings, QPel : No
    Format settings, GMC : No warppoints
    Format settings, Matrix : Custom
    Codec ID : XVID
    Codec ID/Hint : XviD
    Duration : 2h 26mn
    Bit rate : 549 Kbps
    Width : 608 pixels
    Height : 336 pixels
    Display aspect ratio : 16:9
    Frame rate : 25.000 fps
    Color space : YUV
    Chroma subsampling : 4:2:0
    Bit depth : 8 bits
    Scan type : Progressive
    Bits/(Pixel*Frame) : 0.107
    Stream size : 574 MiB (82%)
    Writing library : XviD 1.1.2 (UTC 2006-11-01)

    Audio
    ID : 1
    Format : MPEG Audio
    Format version : Version 1
    Format profile : Layer 3
    Mode : Joint stereo
    Mode extension : MS Stereo
    Codec ID : 55
    Codec ID/Hint : MP3
    Duration : 2h 26mn
    Bit rate mode : Variable
    Bit rate : 108 Kbps
    Nominal bit rate : 128 Kbps
    Channel(s) : 2 channels
    Sampling rate : 48.0 KHz
    Stream size : 113 MiB (16%)
    Alignment : Aligned on interleaves
    Interleave, duration : 24 ms (0.60 video frame)
    Interleave, preload duration : 539 ms
    Writing library : LAME3.98r
    Encoding settings : -m j -V 4 -q 2







    DOWNLOAD LINK::
    SIZE::700MB

    Code:
    http://www.duckload.com/dl/gQGC2
    Last edited by dR Releaser; 12-14-2010 at 11:28 AM.

 

 

Posting Permissions

  • You may not post new threads
  • You may not post replies
  • You may not post attachments
  • You may not edit your posts
  •