Results 1 to 1 of 1
  1. #1

    Thumbs up Golmaal 3 2010 720p DVDRip x264 Untouch AC3 5.1 Audio ESubs [DUS]

    Follow us on Social Media







    Code:
    Ripper: Apka Salman
    
    Source: DDR (Thanks)
    
    Sample: 
    Code:
    http://www.mediafire.com/?ljjqibmid48ytt6
    Subs: English Muxed General Format : Matroska File size : 2.18 GiB Duration : 2h 20mn Overall bit rate : 2 229 Kbps Encoded date : UTC 2010-12-10 17:48:11 Writing application : mkvmerge v4.0.0 ('The Stars were mine') built on Jun 6 2010 16:18:42 Writing library : libebml v1.0.0 + libmatroska v1.0.0 Video ID : 1 Format : AVC Format/Info : Advanced Video Codec Format profile : [email protected] Format settings, CABAC : Yes Format settings, ReFrames : 4 frames Codec ID : V_MPEG4/ISO/AVC Duration : 2h 20mn Bit rate : 1 783 Kbps Width : 1 280 pixels Height : 544 pixels Display aspect ratio : 2.35:1 Frame rate : 23.976 fps Color space : YUV Chroma subsampling : 4:2:0 Bit depth : 8 bits Scan type : Progressive Bits/(Pixel*Frame) : 0.107 Stream size : 1.70 GiB (78%) Writing library : x264 core 98 r1649 c54c47d Audio ID : 2 Format : AC-3 Format/Info : Audio Coding 3 Mode extension : CM (complete main) Codec ID : A_AC3 Duration : 2h 20mn Bit rate mode : Constant Bit rate : 448 Kbps Channel(s) : 6 channels Channel positions : Front: L C R, Side: L R, LFE Sampling rate : 48.0 KHz Bit depth : 16 bits Stream size : 449 MiB (20%) Language : Hindi Text ID : 3 Format : UTF-8 Codec ID : S_TEXT/UTF8 Codec ID/Info : UTF-8 Plain Text Language : English













    Fileserve:
    Code:
    http://www.fileserve.com/file/FSZmDUs/Golmaal.3.2010.720p.DVDRip.X264.Untouch.AC3.Audio.ESubs.DUS.by.heavenly95.part1.rar
    http://www.fileserve.com/file/smZqyff/Golmaal.3.2010.720p.DVDRip.X264.Untouch.AC3.Audio.ESubs.DUS.by.heavenly95.part2.rar
    http://www.fileserve.com/file/QpAHSwy/Golmaal.3.2010.720p.DVDRip.X264.Untouch.AC3.Audio.ESubs.DUS.by.heavenly95.part3.rar
    http://www.fileserve.com/file/4Xustnu/Golmaal.3.2010.720p.DVDRip.X264.Untouch.AC3.Audio.ESubs.DUS.by.heavenly95.part4.rar
    http://www.fileserve.com/file/BhmhKCN/Golmaal.3.2010.720p.DVDRip.X264.Untouch.AC3.Audio.ESubs.DUS.by.heavenly95.part5.rar
    http://www.fileserve.com/file/4HkbXnK/Golmaal.3.2010.720p.DVDRip.X264.Untouch.AC3.Audio.ESubs.DUS.by.heavenly95.part6.rar
    Hotfile:
    Code:
    http://hotfile.com/dl/88606739/174fea0/Golmaal.3.2010.720p.DVDRip.X264.Untouch.AC3.Audio.ESubs.DUS.by.heavenly95.part1.rar.html
    http://hotfile.com/dl/88607491/a1da691/Golmaal.3.2010.720p.DVDRip.X264.Untouch.AC3.Audio.ESubs.DUS.by.heavenly95.part2.rar.html
    http://hotfile.com/dl/88608279/bc01ceb/Golmaal.3.2010.720p.DVDRip.X264.Untouch.AC3.Audio.ESubs.DUS.by.heavenly95.part3.rar.html
    http://hotfile.com/dl/88608224/425c5da/Golmaal.3.2010.720p.DVDRip.X264.Untouch.AC3.Audio.ESubs.DUS.by.heavenly95.part4.rar.html
    http://hotfile.com/dl/88609620/ff92f6b/Golmaal.3.2010.720p.DVDRip.X264.Untouch.AC3.Audio.ESubs.DUS.by.heavenly95.part5.rar.html
    http://hotfile.com/dl/88606670/f68ffc7/Golmaal.3.2010.720p.DVDRip.X264.Untouch.AC3.Audio.ESubs.DUS.by.heavenly95.part6.rar.html
    Man is still the most extraordinary computer of all.




 

 

Posting Permissions

  • You may not post new threads
  • You may not post replies
  • You may not post attachments
  • You may not edit your posts
  •