Results 1 to 1 of 1
  1. #1
    dR Rockers www.desirulez.net
    Join Date
    Sep 2008
    Posts
    111

    T

    Default Ugly.Aur.Pagli - Talli Hogayi ~ [1024x426] Upscale Video

    Follow us on Social Media







    THE SPARKAR GROUP




    Ugly Aur Pagli 2008 Cast & Crew


    Rip INFO
    Code:
    General
    Complete name                    : Ugly Aur Pagli - Talli Hogayi\Ugly.Aur.Pagli - Talli Hogayi ~ [1024x426] Upscale Video 
    Format                           : AVI
    Format/Info                      : Audio Video Interleave
    Format profile                   : OpenDML
    File size                        : 117 MiB
    Duration                         : 4mn 8s
    Overal bit rate                  : 3956 Kbps
    Writing application              : AVI-Mux GUI 1.17.7, Aug  8 2006  20:59:17
    Uploader                              : The Sparkar
    Video
    Format                           : MPEG-4 Visual
    Format profile                   : Streaming [email protected]
    Format settings, BVOP            : Yes
    Format settings, QPel            : No
    Format settings, GMC             : No warppoints
    Format settings, Matrix          : Default
    Codec ID                         : XVID
    Codec ID/Hint                    : XviD
    Duration                         : 4mn 8s
    Bit rate                         : 3501 Kbps
    Width                            : 1024 pixels
    Height                           : 426 pixels
    Display aspect ratio             : 2.404
    Frame rate                       : 23.976 fps
    Resolution                       : 8 bits
    Colorimetry                      : 4:2:0
    Scan type                        : Progressive
    Bits/(Pixel*Frame)               : 0.335
    Stream size                      : 104 MiB (88%)
    Writing library                  : XviD 1.2.0.dev47 (UTC 2006-11-01)
    
    Audio
    Format                           : AC-3
    Format/Info                      : Audio Coding 3
    Codec ID                         : 2000
    Bit rate mode                    : Constant
    Bit rate                         : 448 Kbps
    Channel(s)                       : 6 channels
    Channel positions                : Front: L C R, Rear: L R, LFE
    Sampling rate                    : 48.0 KHz
    Stream size                      : 13.2 MiB (11%)
    Title                            : 1 T01 3_2ch 448Kbps DELAY -237ms






    Code:
    http://rapidshare.com/files/160893600/Talli_Hogayi___1024x426_Upscaled_UPLOAD_-THE_SPARKAR_TEAM-SONU_ROCKY_Video.avi.001
    http://rapidshare.com/files/160904529/Talli_Hogayi___1024x426_Upscaled_UPLOAD_-THE_SPARKAR_TEAM-SONU_ROCKY_Video.avi.002

 

 

Posting Permissions

  • You may not post new threads
  • You may not post replies
  • You may not post attachments
  • You may not edit your posts
  •