Results 1 to 1 of 1
  1. #1
    dR Contributor www.desirulez.net
    Join Date
    Mar 2010
    Posts
    2,245

    Smile Auzaar ( 1997 ) DvD - 2CD - Rip - XviD

    Follow us on Social Media







    Auzaar ( 1997 ) DvD - 2CD - Rip - XviD











    Salman Khan ... Suraj Prakash
    Sanjay Kapoor ... Yash Thakur
    Shilpa Shetty ... Prathna Thakur
    Nirmal Pandey ... Baba
    Kiran Kumar
    Johnny Lever ... Peter (as Johney Lever)
    Aashif Sheikh ... Inspector Bhutey (as Asif Shaikh)
    Paresh Rawal ... Mr. Thakur (Yash's dad)
    Jeetu Verma
    Vishwajeet Pradhan
    Arun Bakshi
    Achyut Potdar
    Ila Arun ... Herself (in song "Apni To Ek Hi Life")
    Vikas Anand
    Tiku Talsania ... College Professor






    Yash Thakur (Sanjay Kapoor) and Suraj Prakash (Salman Khan) are two inseparable friends. After completing their studies, they go their different ways. Yash takes over from his father's (Paresh Rawal) nefarious and mafia-like business, while Suraj becomes an officer of the Central Bureau of Investigation (CBI). Yash's dad is attacked by a rival, and he loses the use of his leg and is confined in a wheelchair. Yash marries his sweetheart Prathna (Shilpa Shetty). After completing his training successfully, Suraj is assigned the investigation against his friend, Yash, which shocks Suraj, but which he accepts. Yash's dad's contacts are many, and soon Yash also comes to know of Suraj's job, and his assignment. Suraj must now convince Yash that his father is not what he appears to be, and at the same time take criticism and pressure from his superiors for not proceeding with the investigation against Yash








    General
    Ripper : Rahul
    Complete name : Auzaar ( 1997 )
    Format : AVI
    Format/Info : Audio Video Interleave
    File size : 1.37 GiB
    Duration : 2h 11mn
    Overall bit rate : 1 487 Kbps
    Writing application : VirtualDubMod 1.5.10.2 (build 2540/release)
    Writing library : VirtualDub build 32839/release

    Video
    ID : 0
    Format : MPEG-4 Visual
    Format profile : Advanced [email protected]
    Format settings, BVOP : Yes
    Format settings, QPel : No
    Format settings, GMC : No warppoints
    Format settings, Matrix : Default (MPEG)
    Muxing mode : Packed bitstream
    Codec ID : XVID
    Codec ID/Hint : XviD
    Duration : 2h 11mn
    Bit rate : 1 027 Kbps
    Width : 672 pixels
    Height : 304 pixels
    Display aspect ratio : 2.2:1
    Frame rate : 29.970 fps
    Color space : YUV
    Chroma subsampling : 4:2:0
    Bit depth : 8 bits
    Scan type : Progressive
    Bits/(Pixel*Frame) : 0.168
    Stream size : 966 MiB (69%)


    Audio
    ID : 1
    Format : AC-3
    Format/Info : Audio Coding 3
    Mode extension : CM (complete main)
    Codec ID : 2000
    Duration : 2h 11mn
    Bit rate mode : Constant
    Bit rate : 448 Kbps
    Channel(s) : 6 channels
    Channel positions : Front: L C R, Side: L R, LFE
    Sampling rate : 48.0 KHz
    Bit depth : 16 bits
    Stream size : 422 MiB (30%)
    Alignment : Split accross interleaves
    Interleave, duration : 33 ms (1.00 video frame)
    Interleave, preload duration : 500 ms



    Credit To Ripper punjabi_boy XMR

    Uploader Kamran444























    Code:
    http://hotfile.com/dl/85102146/2084dab/Auzaar.1997.DvD.2CD.Rip.XviD.bY.Kamran444.avi.001.html
    http://hotfile.com/dl/85102159/dc900a7/Auzaar.1997.DvD.2CD.Rip.XviD.bY.Kamran444.avi.002.html
    http://hotfile.com/dl/85102072/0d0dc95/Auzaar.1997.DvD.2CD.Rip.XviD.bY.Kamran444.avi.003.html
    http://hotfile.com/dl/85101261/62e0979/Auzaar.1997.DvD.2CD.Rip.XviD.bY.Kamran444.avi.004.html



    Code:
    http://www.easy-share.com/1913096623/Auzaar.1997.DvD.2CD.Rip.XviD.bY.Kamran444.avi.001
    http://www.easy-share.com/1913096624/Auzaar.1997.DvD.2CD.Rip.XviD.bY.Kamran444.avi.002
    http://www.easy-share.com/1913096625/Auzaar.1997.DvD.2CD.Rip.XviD.bY.Kamran444.avi.003
    http://www.easy-share.com/1913096622/Auzaar.1997.DvD.2CD.Rip.XviD.bY.Kamran444.avi.004



    Code:
    http://www.fileserve.com/file/mGuCDfd/Auzaar.1997.DvD.2CD.Rip.XviD.bY.Kamran444.avi.001
    http://www.fileserve.com/file/WXRWfDK/Auzaar.1997.DvD.2CD.Rip.XviD.bY.Kamran444.avi.002
    http://www.fileserve.com/file/A736fGP/Auzaar.1997.DvD.2CD.Rip.XviD.bY.Kamran444.avi.003
    http://www.fileserve.com/file/RqWVnj4/Auzaar.1997.DvD.2CD.Rip.XviD.bY.Kamran444.avi.004



    Code:
    http://www.enterupload.com/m4a70xes0p9o/Auzaar.1997.DvD.2CD.Rip.XviD.bY.Kamran444.avi.001.html
    http://www.enterupload.com/ioptw0j0hkna/Auzaar.1997.DvD.2CD.Rip.XviD.bY.Kamran444.avi.002.html
    http://www.enterupload.com/ppkt39vdbjks/Auzaar.1997.DvD.2CD.Rip.XviD.bY.Kamran444.avi.003.html
    http://www.enterupload.com/ynhp3w7fwmej/Auzaar.1997.DvD.2CD.Rip.XviD.bY.Kamran444.avi.004.html




    Code:
    http://www.filesonic.com/file/35831761/Auzaar.1997.DvD.2CD.Rip.XviD.bY.Kamran444.avi.001
    http://www.filesonic.com/file/35831747/Auzaar.1997.DvD.2CD.Rip.XviD.bY.Kamran444.avi.002
    http://www.filesonic.com/file/35831749/Auzaar.1997.DvD.2CD.Rip.XviD.bY.Kamran444.avi.003
    http://www.filesonic.com/file/35831417/Auzaar.1997.DvD.2CD.Rip.XviD.bY.Kamran444.avi.004




    Code:
    http://netload.in/dateiGKUyLa1A83/Auzaar.1997.DvD.2CD.Rip.XviD.bY.Kamran444.avi.001.htm
    http://netload.in/dateiz80vBnGttu/Auzaar.1997.DvD.2CD.Rip.XviD.bY.Kamran444.avi.002.htm
    http://netload.in/dateiV99ZzrKmxZ/Auzaar.1997.DvD.2CD.Rip.XviD.bY.Kamran444.avi.003.htm
    http://netload.in/dateizJViFqEt6c/Auzaar.1997.DvD.2CD.Rip.XviD.bY.Kamran444.avi.004.htm




    Code:
    http://oron.com/x29is5mtpfgf/Auzaar.1997.DvD.2CD.Rip.XviD.bY.Kamran444.avi.001.html
    http://oron.com/nxt1iqgi7zfj/Auzaar.1997.DvD.2CD.Rip.XviD.bY.Kamran444.avi.002.html
    http://oron.com/9n2yvj69e0p0/Auzaar.1997.DvD.2CD.Rip.XviD.bY.Kamran444.avi.003.html
    http://oron.com/q3d5ul48f2x1/Auzaar.1997.DvD.2CD.Rip.XviD.bY.Kamran444.avi.004.html

 

 

Posting Permissions

  • You may not post new threads
  • You may not post replies
  • You may not post attachments
  • You may not edit your posts
  •