Results 1 to 3 of 3
  1. #1
    Administrators www.desirulez.net
    Join Date
    Mar 2010
    Location
    Sea Side
    Posts
    9,872

    T

    Default Harry Potter and the Deathly Hallows: Part 1 (2010) [Dual Audio] (Hindi-English) SCam

    Follow us on Social Media














    General
    Format : MPEG-PS
    File size : 699 MiB
    Duration : 2h 9mn
    Overall bit rate : 757 Kbps

    Video
    ID : 224 (0xE0)
    Format : MPEG Video
    Format version : Version 2
    Format profile : [email protected]
    Format settings, BVOP : Yes
    Format settings, Matrix : Default
    Format_Settings_GOP : M=3, N=15
    Duration : 2h 9mn
    Bit rate mode : Variable
    Bit rate : 678 Kbps
    Nominal bit rate : 1 150 Kbps
    Width : 352 pixels
    Height : 288 pixels
    Display aspect ratio : 4:3
    Frame rate : 25.000 fps
    Standard : PAL
    Resolution : 8 bits
    Colorimetry : 4:2:0
    Scan type : Progressive
    Bits/(Pixel*Frame) : 0.268
    Stream size : 626 MiB (90%)

    Audio
    ID : 192 (0xC0)
    Format : MPEG Audio
    Format version : Version 1
    Format profile : Layer 2
    Duration : 2h 8mn
    Bit rate mode : Constant
    Bit rate : 64.0 Kbps
    Channel(s) : 2 channels
    Sampling rate : 48.0 KHz
    Stream size : 59.0 MiB (8%)








    Free File Hosting, Online Storage &amp File Upload with FileServe








  2. #2
    New Arrivals
    Join Date
    Apr 2011
    Location
    USA
    Posts
    1

    T

    Default Hello to everyone

    Hi,

    This forum is really great. I just wanted to welcome everyone.

    Edgar

    -----------------
    My websites: 1940s swing dancing clothes and coconut oil health facts and john marchasella

  3. #3
    New Arrivals
    Join Date
    May 2011
    Posts
    1

    T

    Default

    heyyy

 

 

Posting Permissions

  • You may not post new threads
  • You may not post replies
  • You may not post attachments
  • You may not edit your posts
  •