Results 1 to 1 of 1
  1. #1
    Hot Member www.desirulez.net
    Join Date
    Sep 2009
    Posts
    1,215

    T

    Thumbs up Action Replayy [2010] 1Cd-Dvd_SCR Rip ( FS, SM, NL, HF) HINDI

    Follow us on Social Media









    Format : AVI
    Format/Info : Audio Video Interleave
    File size : 702 MiB
    Duration : 2h 5mn
    Overall bit rate : 779 Kbps
    Writing library : VirtualDub build 32817/release

    Video
    ID : 0
    Format : MPEG-4 Visual
    Format profile : Advanced [email protected]
    Format settings, BVOP : Yes
    Format settings, QPel : No
    Format settings, GMC : No warppoints
    Format settings, Matrix : Default (H.263)
    Codec ID : XVID
    Codec ID/Hint : XviD
    Duration : 2h 5mn
    Bit rate : 690 Kbps
    Width : 624 pixels
    Height : 272 pixels
    Display aspect ratio : 2.25:1
    Frame rate : 23.976 fps
    Color space : YUV
    Chroma subsampling : 4:2:0
    Bit depth : 8 bits
    Scan type : Progressive
    Bits/(Pixel*Frame) : 0.170
    Stream size : 621 MiB (89%)
    Writing library : XviD 1.2.1 (UTC 2008-12-04)

    Audio
    ID : 1
    Format : MPEG Audio
    Format version : Version 1
    Format profile : Layer 3
    Mode : Joint stereo
    Mode extension : MS Stereo
    Codec ID : 55
    Codec ID/Hint : MP3
    Duration : 2h 5mn
    Bit rate mode : Constant
    Bit rate : 80.0 Kbps
    Channel(s) : 2 channels
    Sampling rate : 48.0 KHz
    Stream size : 72.0 MiB (10%)
    Alignment : Split accross interleaves
    Interleave, duration : 42 ms (1.00 video frame)
    Interleave, preload duration : 500 ms



    [IMG]http://img163.imageshack.us/img163/4771/vlcsnap2010111914h24m41.png[/IMG
    ]








    Code:
    http://hotfile.com/dl/83749748/1753f6c/EZ-Action.Replayy.2010.1CD.SCR_by.BanneD.part1.rar.html
    http://hotfile.com/dl/83749777/443cd87/EZ-Action.Replayy.2010.1CD.SCR_by.BanneD.part2.rar.html
    http://hotfile.com/dl/83749648/1cf68e9/EZ-Action.Replayy.2010.1CD.SCR_by.BanneD.part3.rar.html
    http://hotfile.com/dl/83749539/74b98ca/EZ-Action.Replayy.2010.1CD.SCR_by.BanneD.part4.rar.html
    Code:
    http://www.fileserve.com/file/bmBMdAN
    http://www.fileserve.com/file/3fe54YQ
    http://www.fileserve.com/file/Tj3CXr7
    http://www.fileserve.com/file/xZBT4X6

 

 

Posting Permissions

  • You may not post new threads
  • You may not post replies
  • You may not post attachments
  • You may not edit your posts
  •