Results 1 to 1 of 1
  1. #1
    dR Contributor www.desirulez.net
    Join Date
    Sep 2009
    Posts
    305

    T

    Default Guzarish 2010 S Cam XVid 1Cd Rip King Of Movie [Singal Link]

    Follow us on Social Media











    Guzarish 2010 S Cam XVid 1Cd Rip King Of Movie [Singal Link]












    Banner
    SLB Films
    UTV Motion Pictures

    Status
    Released

    Color
    C

    Release Date
    November 19, 2010

    Language
    Hindi

    Genre
    Romance / Social

    Shooting Studios
    Mehboob Studio

    Producer
    Sanjay Leela Bhansali
    Ronnie Screwvala

    Executive Producer / Co-Producer
    Deven Khote
    Zarine Mehta
    Siddharth Roy Kapur

    Director
    Sanjay Leela Bhansali

    Star Cast
    Hrithik Roshan...... Ethan Mascarenhas
    Aishwarya Rai...... Sophie D'souza
    Aditya Roy Kapur...... Omar Siddiqui
    Monikangana Dutta...... Estella Francis
    Rajit Kapoor
    Shernaz Patel...... Devyani Dutta
    Sanjay Lafont...... Father Samuel
    Nafisa Ali...... Isabel Mascarenhas
    Suhel Seth...... Dr. Nayak
    Vijay Crishna
    Ash Chandler...... Yasser Siddiqui
    Makrand Deshpande...... Nevile Dsouza
    Mahabanoo Mody-Kotwal...... As Herself
    Pralhad Kakkar...... As Himself
    Achint Kaur...... Saroj Vaidya (TV News Reporter)
    Priyanka Bose...... Singer at the Bar
    Swara Bhaskar...... Radhika Talwar
    Aayam Mehta...... Activist on Phone
    Sujata Kumar...... School Principal on Phone

    Cassettes and CD's on
    T-Series

    Singers
    K K
    Shail Hada
    Kunal Ganjawala
    Rakesh Pandit
    Francois
    Vibhavari Joshi
    Sunidhi Chauhan
    Harshdeep Kaur
    Shankar Mahadevan

    Lyricist
    A.M. Turaz
    Vibhu Puri
    Late Jagdish Joshi

    Music Director
    Sanjay Leela Bhansali

    Background Music
    Tubby

    Cinematography
    Sudeep Chatterjee

    Choreography
    Ashley Lobo
    Longines Fernandes
    Pony Verma

    Action
    Sham Kaushal

    Editor
    Hemal Kothari

    Screenplay
    Sanjay Leela Bhansali
    Bhavani Iyer

    Sound
    Dileep Subramaniam

    Dialogue
    Vibhu Puri
    Bhavani Iyer

    Costume
    Sabyasachi Mukherjee

    Publicity Designs
    Rahul Nanda
    Himanshu Nanda




    - : Screens : -













    More Screens Links

    Code:
     
    
    http://picturedip.com/4vaeqctbd7ka/8-68.jpg.html
    http://picturedip.com/9qh4e2yi2be5/7-68.jpg.html
    http://picturedip.com/xjdv2reiv5ad/9-66.jpg.html

    Code:
    
    General
    
    Format                           : AVI
    Format/Info                      : Audio Video Interleave
    File size                        : 710 MiB
    Duration                         : 1h 25mn
    Overall bit rate                 : 1 159 Kbps
    Writing application              : MEncoder SVN-r30881(20100311-gcc4.3.3)
    Writing library                  : MPlayer
    
    Video
    ID                               : 0
    Format                           : MPEG-4 Visual
    Format profile                   : [email protected]
    Format settings, BVOP            : No
    Format settings, QPel            : No
    Format settings, GMC             : No warppoints
    Format settings, Matrix          : Default (H.263)
    Codec ID                         : DX50
    Codec ID/Hint                    : DivX 5
    Duration                         : 1h 25mn
    Bit rate                         : 1 019 Kbps
    Width                            : 640 pixels
    Height                           : 360 pixels
    Display aspect ratio             : 16:9
    Frame rate                       : 25.000 fps
    Color space                      : YUV
    Chroma subsampling               : 4:2:0
    Bit depth                        : 8 bits
    Scan type                        : Progressive
    Bits/(Pixel*Frame)               : 0.177
    Stream size                      : 624 MiB (88%)
    Writing library                  : Lavc52.58.0
    
    Audio
    ID                               : 1
    Format                           : MPEG Audio
    Format version                   : Version 1
    Format profile                   : Layer 3
    Mode                             : Joint stereo
    Mode extension                   : MS Stereo
    Codec ID                         : 55
    Codec ID/Hint                    : MP3
    Duration                         : 1h 25mn
    Bit rate mode                    : Constant
    Bit rate                         : 128 Kbps
    Channel(s)                       : 2 channels
    Sampling rate                    : 44.1 KHz
    Stream size                      : 78.4 MiB (11%)
    Alignment                        : Aligned on interleaves
    Interleave, duration             : 26 ms (0.65 video frame)
    Interleave, preload duration     : 522 ms
    Writing library                  : LAME3.98
    
    
    
    

    Credit To Ripper TJ


    - : Download Links : -





    Just Click On Singal Link

    Code:
    http://hotfile.com/dl/83622787/55c35f6/Guzarish_2010_S_Cam_XVid_1Cd_Rip_King_Of.Movie.avi.html


    Code:
    http://www.fileserve.com/file/g8nHGd4/Guzarish 2010 S Cam XVid 1Cd Rip King Of.Movie.avi



 

 

Posting Permissions

  • You may not post new threads
  • You may not post replies
  • You may not post attachments
  • You may not edit your posts
  •