Results 1 to 4 of 4
  1. #1
    dR Contributor www.desirulez.net
    Join Date
    Sep 2008
    Posts
    164

    T

    Default KARZ (2008)1 CD P-dvdRip 700 Mb New Rip

    Follow us on Social Media







    KARZ (2008)1 CD P-dvdRip 700 Mb New Rip









    Information


    Video
    Format : MPEG-4 Visual
    Format profile : Streaming [email protected]
    Format settings, BVOP : Yes
    Format settings, QPel : No
    Format settings, GMC : No warppoints
    Format settings, Matrix : Default
    Codec ID : XVID
    Codec ID/Hint : XviD
    Duration : 2h 20mn
    Bit rate : 562 Kbps
    Width : 672 pixels
    Height : 224 pixels
    Display aspect ratio : 3.000
    Frame rate : 23.976 fps
    Resolution : 8 bits
    Colorimetry : 4:2:0
    Scan type : Progressive
    Bits/(Pixel*Frame) : 0.156
    Stream size : 565 MiB (81%)

    Audio
    Format : MPEG Audio
    Format version : Version 1
    Format profile : Layer 3
    Codec ID : 55
    Codec ID/Hint : MP3
    Bit rate mode : Constant
    Bit rate : 128 Kbps
    Channel(s) : 2 channels
    Sampling rate : 44.1 KHz
    Resolution : 16 bits
    Stream size : 129 MiB (18%)
    Title : mp3 vts
    Uploader............Im2good








    CAPS















    DOWNLOAD LINK


    [HIDE]
    Code:
    
    
    http://rapidshare.com/files/155397336/Karzz..2008.1CD.PDVDRIP.NEW.PRINT.By.IM2GOOD.avi.001
    
    http://rapidshare.com/files/155397389/Karzz..2008.1CD.PDVDRIP.NEW.PRINT.By.IM2GOOD.avi.002
    
    http://rapidshare.com/files/155397402/Karzz..2008.1CD.PDVDRIP.NEW.PRINT.By.IM2GOOD.avi.003
    
    http://rapidshare.com/files/155397337/Karzz..2008.1CD.PDVDRIP.NEW.PRINT.By.IM2GOOD.avi.004
    
    
    http://rapidshare.com/files/155397844/Karzz..2008.1CD.PDVDRIP.NEW.PRINT.By.IM2GOOD.srt.html
    [/HIDE]


    NOTE


    After Download All Parts put Them Into 1 Folder And Use HJSPLIT Software To Join Them


    (Like folder Name xyz and files r in it *.001 *.002 *.003 *.004.Now Use Software Open It And Choose Join Option Browse That Folder XYZ AND SELECT FIRST FILE ONLY *.001 And Click On Join)


    And Enjoy The Movie By Im2good.



    Code:
    http://www.freebytesoftware.com/download/hjsplit.zip

  2. #2
    New Arrivals
    Join Date
    Nov 2008
    Posts
    3

    T

    Default

    thanks a lot

  3. #3
    Junior Member
    Join Date
    Nov 2008
    Posts
    1

    T

    Default

    thanxs buddy

  4. #4
    New Arrivals
    Join Date
    Jul 2009
    Posts
    3

    T

    Default

    Thanks ALOT

 

 

Posting Permissions

  • You may not post new threads
  • You may not post replies
  • You may not post attachments
  • You may not edit your posts
  •