Results 1 to 1 of 1
  1. #1
    Super Member www.desirulez.net
    Join Date
    Oct 2010
    Posts
    481

    T

    Default Do Dooni Chaar (2010) DVD Scr [1CD][BalaCrazy]

    Follow us on Social Media












    -=Info=-
    Code:
    General
    Format                           : Matroska
    File size                        : 698 MiB
    Duration                         : 1h 46mn
    Overall bit rate                 : 913 Kbps
    Encoded date                     : UTC 2010-10-27 03:18:45
    Writing application              : mkvmerge v4.0.0 ('The Stars were mine') built on Jun  6 2010 16:18:42
    Writing library                  : libebml v1.0.0 + libmatroska v1.0.0
    
    Video
    ID                               : 1
    Format                           : AVC
    Format/Info                      : Advanced Video Codec
    Format profile                   : [email protected]
    Format settings, CABAC           : Yes
    Format settings, ReFrames        : 3 frames
    Muxing mode                      : Container [email protected]
    Codec ID                         : V_MPEG4/ISO/AVC
    Duration                         : 1h 46mn
    Bit rate                         : 798 Kbps
    Nominal bit rate                 : 815 Kbps
    Width                            : 688 pixels
    Height                           : 336 pixels
    Display aspect ratio             : 2.048
    Frame rate                       : 23.976 fps
    Resolution                       : 24 bits
    Colorimetry                      : 4:2:0
    Scan type                        : Progressive
    Bits/(Pixel*Frame)               : 0.144
    Stream size                      : 610 MiB (87%)
    Writing library                  : x264 core 68 r1183M f21daff
    
    Audio
    ID                               : 2
    Format                           : MPEG Audio
    Format version                   : Version 1
    Format profile                   : Layer 3
    Codec ID                         : A_MPEG/L3
    Codec ID/Hint                    : MP3
    Duration                         : 1h 46mn
    Bit rate mode                    : Constant
    Bit rate                         : 96.0 Kbps
    Channel(s)                       : 2 channels
    Sampling rate                    : 32.0 KHz
    Resolution                       : 16 bits
    Stream size                      : 73.4 MiB (11%)
    Title                            : DDR
    Writing library                  : LAME3.98r
    Encoding settings                : -m j -V 4 -q 2 -lowpass 15.1 -b 96
    
    Text
    ID                               : 3
    Format                           : UTF-8
    Codec ID                         : S_TEXT/UTF8
    Codec ID/Info                    : UTF-8 Plain Text
    -=Screens=-








    -= Download =-
    Single Link:
    Code:
    http://www.fileserve.com/file/7cVuBXB
    200 mb Splitted Link:
    Code:
    http://www.fileserve.com/file/jB37P4X
    http://www.fileserve.com/file/24EaXRs
    http://www.fileserve.com/file/ZrBjR2j
    http://www.fileserve.com/file/uzAfx3V


 

 

Posting Permissions

  • You may not post new threads
  • You may not post replies
  • You may not post attachments
  • You may not edit your posts
  •